Классический форум-трекер
canvas not supported
Нас вместе: 4 216 468

Другой / Godsend (2004) BDRip [H.265/1080p]


 
 
RSS
Начать новую тему   Ответить на тему    Торрент-трекер NNM-Club -> Зарубежное кино -> Зарубежные Фильмы (HD, FHD)
Автор Сообщение
buba5473 ®
Стаж: 11 лет 9 мес.
Сообщений: 1158
Ratio: 602.259
Поблагодарили: 142966
100%
Откуда: Новосибирск
russia.gif
Другой / Godsend (2004) BDRip [H.265/1080p]
Производство: Канада, США / 2929 Productions, Artists Production Group, Blue Productions, Millennium Films
Жанр: ужасы, фантастика, фэнтези, триллер, драма

Режиссер: Ник Хэмм
Актеры: Грег Кинниэр, Ребекка Ромейн, Роберт Де Ниро, Камерон Брайт, Мервин Мондесер, Сава Дрейтон, Джэйк Саймонс, Эль Даунс, Эди Инксеттер, Рауль Банеджа

Описание:
Это случилось в тот момент, когда счастливая семья - Пол, Джесси и их сын Адам - готовились к переезду в связи с приглашением Пола на другую работу. В день своего восьмилетия под колёсами автомобиля погиб Адам, сделав своих родителей глубоко несчастными людьми. На похоронах супругов окликнул незнакомец, оказавшийся известным учёным-генетиком Ричардом Уэллсом.
Уэллс сказал, что он в состоянии вернуть им сына в точности таким же, каков тот был при жизни, то есть клонировать его, использовав ген погибшего мальчика. Возмущенный Пол с негодованием отвергает кощунственное, с его точки зрения, предложение. Но Ричард оставляет Джесси свой телефон и советует подумать...


Возраст: 12+ (зрителям, достигшим 12 лет)
Рейтинг MPAA: PG-13 (детям до 13 лет просмотр нежелателен)

Релиз от: Paso77

Продолжительность: 01:42:41
Качество видео: BDRip
Перевод: Дублированный, Многоголосый профессиональный, Двуголосый профессиональный, Авторский
Субтитры: русские, английские

Видео: HEVC/H.265, 1920x818, ~6905 Kbps
Аудио 1: AC3, 6 ch, 448 Kbps (русский, DUB - Мосфильм-Мастер)
Аудио 2: AC3, 6 ch, 448 Kbps (русский, MVO)
Аудио 3: AC3, 2 ch, 192 Kbps (русский, DVO - Tycoon Studio)
Аудио 4: AC3, 6 ch, 448 Kbps (русский, AVO - А. Карповский)
Аудио 5: AC3, 6 ch, 640 Kbps (английский)

Общее
Уникальный идентификатор : 134514535165393430410276370035270796630 (0x65328E9F9D83EB6B5482DC38AAC8C556)
Полное имя : /export/all_movies/Фильмы/Иностранные/Другой (Godsend).mkv
Формат : Matroska
Версия формата : Version 4
Размер файла : 6,51 Гбайт
Продолжительность : 1 ч. 42 м.
Общий поток : 9 080 Кбит/сек
Название фильма : Другой / Godsend
Кодирование произвёл : Paso77
Дата выпуска : 2004
Дата кодирования : UTC 2023-01-15 10:27:06
Программа кодирования : mkvmerge v71.1.0 ('Fortitude') 64-bit
Библиотека кодирования : libebml v1.4.4 + libmatroska v1.7.1
Released by : Buba5473 for NNM-Club

Видео
Идентификатор : 1
Формат : HEVC
Формат/Информация : High Efficiency Video Coding
Профиль формата : Main@L4@High
Идентификатор кодека : V_MPEGH/ISO/HEVC
Продолжительность : 1 ч. 42 м.
Битрейт : 6 905 Кбит/сек
Ширина : 1 920 пикселей
Высота : 818 пикселей
Соотношение сторон : 2,35:1
Режим частоты кадров : Переменный
Частота кадров : 23,840 кадра/сек
Частота кадров в оригинале : 23,976 (24000/1001) кадра/сек
Цветовое пространство : YUV
Субдискретизация насыщенности : 4:2:0
Битовая глубина : 8 бит
Бит/(Пиксели*Кадры) : 0.184
Размер потока : 4,95 Гбайт (76%)
Заголовок : Godsend 2004 BDMux ITA ENG 1080p x265 Paso77
Язык : zxx
Default : Нет
Forced : Нет
Цветовой диапазон : Limited
Основные цвета : BT.709
Характеристики трансфера : BT.709
Коэффициенты матрицы : BT.709

Аудио #1
Идентификатор : 2
Формат : AC-3
Формат/Информация : Audio Coding 3
Коммерческое название : Dolby Digital
Идентификатор кодека : A_AC3
Продолжительность : 1 ч. 42 м.
Вид битрейта : Постоянный
Битрейт : 448 Кбит/сек
Каналы : 6 каналов
Channel layout : L R C LFE Ls Rs
Частота : 48,0 КГц
Частота кадров : 31,250 кадров/сек (1536 SPF)
Метод сжатия : С потерями
Задержка видео : -3 мс.
Размер потока : 329 Мбайт (5%)
Заголовок : Перевод: Профессиональный (полное дублирование)
Язык : Russian (RU)
Service kind : Complete Main
Default : Да
Forced : Нет

Аудио #2
Идентификатор : 3
Формат : AC-3
Формат/Информация : Audio Coding 3
Коммерческое название : Dolby Digital
Идентификатор кодека : A_AC3
Продолжительность : 1 ч. 42 м.
Вид битрейта : Постоянный
Битрейт : 448 Кбит/сек
Каналы : 6 каналов
Channel layout : L R C LFE Ls Rs
Частота : 48,0 КГц
Частота кадров : 31,250 кадров/сек (1536 SPF)
Метод сжатия : С потерями
Задержка видео : -3 мс.
Размер потока : 329 Мбайт (5%)
Заголовок : Перевод: Профессиональный (многоголосый закадровый)
Язык : Russian (RU)
Service kind : Complete Main
Default : Нет
Forced : Нет

Аудио #3
Идентификатор : 4
Формат : AC-3
Формат/Информация : Audio Coding 3
Коммерческое название : Dolby Digital
Идентификатор кодека : A_AC3
Продолжительность : 1 ч. 42 м.
Вид битрейта : Постоянный
Битрейт : 192 Кбит/сек
Каналы : 2 канала
Channel layout : L R
Частота : 48,0 КГц
Частота кадров : 31,250 кадров/сек (1536 SPF)
Метод сжатия : С потерями
Задержка видео : -3 мс.
Размер потока : 141 Мбайт (2%)
Заголовок : Перевод: Профессиональный (двухголосый закадровый) Tycoon Studio
Язык : Russian (RU)
Service kind : Complete Main
Default : Нет
Forced : Нет

Аудио #4
Идентификатор : 5
Формат : AC-3
Формат/Информация : Audio Coding 3
Коммерческое название : Dolby Digital
Идентификатор кодека : A_AC3
Продолжительность : 1 ч. 42 м.
Вид битрейта : Постоянный
Битрейт : 448 Кбит/сек
Каналы : 6 каналов
Channel layout : L R C LFE Ls Rs
Частота : 48,0 КГц
Частота кадров : 31,250 кадров/сек (1536 SPF)
Метод сжатия : С потерями
Задержка видео : -3 мс.
Размер потока : 329 Мбайт (5%)
Заголовок : Перевод: Авторский (одноголосый закадровый) А. Карповский
Язык : Russian (RU)
Service kind : Complete Main
Default : Нет
Forced : Нет

Аудио #5
Идентификатор : 6
Формат : AC-3
Формат/Информация : Audio Coding 3
Коммерческое название : Dolby Digital
Идентификатор кодека : A_AC3
Продолжительность : 1 ч. 42 м.
Вид битрейта : Постоянный
Битрейт : 640 Кбит/сек
Каналы : 6 каналов
Channel layout : L R C LFE Ls Rs
Частота : 48,0 КГц
Частота кадров : 31,250 кадров/сек (1536 SPF)
Метод сжатия : С потерями
Задержка видео : -5 мс.
Размер потока : 467 Мбайт (7%)
Язык : English (US)
Service kind : Complete Main
Default : Нет
Forced : Нет

Текст #1
Идентификатор : 7
Формат : UTF-8
Идентификатор кодека : S_TEXT/UTF8
Идентификатор кодека/Информация : UTF-8 Plain Text
Продолжительность : 1 ч. 37 м.
Битрейт : 70 бит/сек
Частота кадров : 0,166 кадр/сек
Count of elements : 969
Размер потока : 50,3 Кбайт (0%)
Язык : Russian (RU)
Default : Да
Forced : Нет

Текст #2
Идентификатор : 8
Формат : UTF-8
Идентификатор кодека : S_TEXT/UTF8
Идентификатор кодека/Информация : UTF-8 Plain Text
Продолжительность : 1 ч. 35 м.
Битрейт : 56 бит/сек
Частота кадров : 0,210 кадр/сек
Count of elements : 1205
Размер потока : 39,5 Кбайт (0%)
Язык : English (US)
Default : Нет
Forced : Нет

Меню
00:00:00.000 : 00:00:00.000
00:05:53.061 : 00:05:53.061
00:10:37.137 : 00:10:37.136
00:16:12.513 : 00:16:12.513
00:22:05.991 : 00:22:05.991
00:27:15.425 : 00:27:15.425
00:33:36.681 : 00:33:36.681
00:40:36.142 : 00:40:36.142
00:46:20.778 : 00:46:20.778
00:51:45.311 : 00:51:45.311
00:58:02.229 : 00:58:02.229
01:06:04.878 : 01:06:04.878
01:11:18.691 : 01:11:18.691
01:18:32.708 : 01:18:32.708
01:23:46.688 : 01:23:46.688
01:29:32.033 : 01:29:32.033
01:38:20.353 : 01:38:20.353

XMP
Xmp.video.FileName : /export/all_movies/Фильмы/Иностранные/Другой (Godsend).mkv
Xmp.video.FileSize : 1.75922e+13
Xmp.video.MimeType : video/matroska
Xmp.video.EBMLVersion : 1
Xmp.video.EBMLReadVersion : 1
Xmp.video.DocType : matroska
Xmp.video.DocTypeVersion : 4
Xmp.video.DocTypeReadVersion : 2
Xmp.video.TimecodeScale : 0.001
Xmp.video.MuxingApp : libebml v1.4.4 + libmatroska v1.7.1
Xmp.video.WritingApp : mkvmerge v71.1.0 ('Fortitude') 64-bit
Xmp.video.Duration : 6160610
Xmp.video.DateUTC : 695471226
Xmp.video.Title : Другой / Godsend
Xmp.video.TotalStream : 14
Xmp.video.DefaultOn : No
Xmp.video.TrackLacing : No
Xmp.video.TrackLang : zxx
Xmp.video.Codec : V_MPEGH/ISO/HEVC
Xmp.video.FrameRate : 23.976
Xmp.video.AspectRatio : 1:1
H.265/HEVC (High Efficiency Video Coding) - это новый стандарт кодирования видео.
*Рипы в фомате HEVC, в настоящее время поддерживается не всеми аппаратными проигрывателями.
*Для корректного воспроизведения может потребоваться обновление ПО.
*Стандарт H.265/HEVC является логическим продолжением стандарта H.264/AVC (Advanced Video Coding), и характеризуется более эффективными алгоритмами сжатия, а также поддержкой высокого разрешения вплоть до 8K UHD (8192x4320). Первая версия стандарта H.265 была опубликована в начале 2013 года.

Любителям решения из коробки - установить последнюю версию на выбор:
Media Player Classic - Black Edition (MPC-BE)
VLC media player
Daum Pot Player
GOM Media Player

Любителям WMP и других плееров, использующих по умолчанию для воспроизведения системные кодеки+сплитеры - установить K-Lite Codec Pack версии 10.1.0 и выше.
Любимые плееры, не использующии по умолчанию для воспроизведения системные кодеки+сплитеры, нужно перенастроить на использование оных.
Скриншоты:


Все одноименные релизы в Клубе

Время раздачи: с 11:00 до 21:00 по Новосибирску (UTC +7) (минимум до появления первых 3-5 скачавших)
[NNMClub.to]_Godsend.torrent
 Торрент:   Зарегистрирован
 
Зарегистрируйтесь и скачайте торрент!
32.8 KB

Примагнититься
 Зарегистрирован:   21 Янв 2023 15:11:22
 Размер:   6.51 GB  (
 Рейтинг:   4.2 (Голосов: 13)
 Поблагодарили:   52
 Проверка:   Оформление проверено модератором 21 Янв 2023 15:19:33
Как cкачать  ·  Как раздать  ·  Правильно оформить  ·  Поднять ратио!  
Показать сообщения:   
Начать новую тему   Ответить на тему    Торрент-трекер NNM-Club -> Зарубежное кино -> Зарубежные Фильмы (HD, FHD) Часовой пояс: GMT + 3
Страница 1 из 1