Классический форум-трекер
canvas not supported
Нас вместе: 4 172 559

Переступить черту (1985) SATRip (2 серии)


 
 
RSS
Начать новую тему   Ответить на тему    Торрент-трекер NNM-Club -> Классика кино и Старые фильмы до 90-х -> Старые Отечественные Фильмы (HD*Rip/LQ, DVDRip, SATRip, VHSRip)
Автор Сообщение
Locki ®
Стаж: 12 лет 1 мес.
Сообщений: 73
Ratio: 4.184
Поблагодарили: 4279
100%
germany.gif
Переступить черту (1985) SATRip (2 серии)
Производство: СССР, "Лентелефильм"
Жанр: Криминал

Режиссер: Юлий Колтун
Актеры: Вадим Лобанов, Татьяна Васильева, Хенрикас Кураускас, Сергей Андрейчук, Михаил Девяткин, Вера Быкова, Виктор Адеев, Сергей Власов, Галина Гудова, Виктор Мирошниченко, Игорь Озеров, Павел Первушин, Валерия Киселева, Гали Абайдулов, Владимир Данилин, Константин Кинчев, Святослав Задерий, Александр Поляков

Описание:
Три дела — одно за другим — ложатся на стол следователя Владимира Петровича Сажина: автомобильный наезд, кража музыкальной аппаратуры и дело о частной практике гражданки Калязиной, пользующейся славой врача-экстрасенса среди городской элиты. Интуитивно чувствуя связь между этими делами, Сажин шаг за шагом, спокойно, но верно идет к цели…


Дата мировой премьеры: 4 февраля 1987, СССР

Продолжительность: 01:29:45 + 01:29:41
Качество видео: SATRip
Субтитры: Отсутствуют

Видео: H.264/AVC, 640X480 (4:3), ~1723 Кбит/сек, 25 fps
Аудио: MP2, 2 ch, 192 Кбит/сек
1 серия: Бумажный змей
Для школьного ансамбля десятиклассников "Бумажный змей" была куплена музыкальная аппаратура. Ребята закончили школу, аппаратура осталась, но была украдена. Был сбит угнанными синими "жигулями" 16-летний мальчик. Умерла в больнице старуха из рода Воронцовых, перед смертью у нее пропали часы, принадлежавшие А. С. Пушкину. Сажин (Вадим Лобанов) ведет следствие, и оказывается, что со всеми этими делами связана некая Калязина (Висильева), работающая в СЭС, но зарабатывающая настоящие деньги как экстрасенс. Она обладает редким талантом помогать людям, воздействуя на их психику, но с совестью у нее не все в порядке - это она украла у старушки часы. Это она скомпрометировала следователя Сажина, подставив его под взятку. В свою очередь, она находится под влиянием одного очень нехорошего человека, нажившегося во время блокады.
2 серия: Маэстро
Во 2-й серии отстраненный от дела Сажин ведет расследование уже как частный детектив. Он находит загипнотизированных Калязиной свидетелей, разгипнотизирует их при помощи иллюзиониста Данилина, маэстро своего дела, и те дают показания, изобличающие Калязину, которая, как и ожидалось, работала на скульптора, удочерившего ее и заставившего 19-летнюю тогда девушку выйти за него замуж после смерти жены.
General
Complete name : D:\Переступить черту\переступить черту.avi
Format : AVI
Format/Info : Audio Video Interleave
File size : 1.46 GiB
Duration : 1h 29mn
Overall bit rate : 2 328 Kbps
Writing application : VirtualDubMod 1.5.10.2 (build 2540/release)
Writing library : VirtualDubMod build 2540/release

Video
ID : 0
Format : MPEG-4 Visual
Format profile : Simple@L3
Format settings, BVOP : 2
Format settings, QPel : No
Format settings, GMC : No warppoints
Format settings, Matrix : Default (H.263)
Muxing mode : Packed bitstream
Codec ID : XVID
Codec ID/Hint : XviD
Duration : 1h 29mn
Bit rate : 2 126 Kbps
Width : 698 pixels
Height : 488 pixels
Display aspect ratio : 1.430
Frame rate : 25.000 fps
Color space : YUV
Chroma subsampling : 4:2:0
Bit depth : 8 bits
Scan type : Progressive
Compression mode : Lossy
Bits/(Pixel*Frame) : 0.250
Stream size : 1.33 GiB (91%)
Writing library : XviD 1.1.0 Beta2 (UTC 2005-04-04)

Audio
ID : 1
Format : MPEG Audio
Format version : Version 1
Format profile : Layer 2
Codec ID : 50
Duration : 1h 29mn
Bit rate mode : Constant
Bit rate : 192 Kbps
Channel(s) : 2 channels
Sampling rate : 48.0 KHz
Compression mode : Lossy
Stream size : 123 MiB (8%)
Alignment : Aligned on interleaves
Interleave, duration : 40 ms (1.00 video frame)
Interleave, preload duration : 504 ms
General
Complete name : D:\Переступить черту\переступить черту-2.avi
Format : AVI
Format/Info : Audio Video Interleave
File size : 1.46 GiB
Duration : 1h 29mn
Overall bit rate : 2 328 Kbps
Writing application : VirtualDubMod 1.5.10.2 (build 2540/release)
Writing library : VirtualDubMod build 2540/release

Video
ID : 0
Format : MPEG-4 Visual
Format profile : Simple@L3
Format settings, BVOP : 2
Format settings, QPel : No
Format settings, GMC : No warppoints
Format settings, Matrix : Default (H.263)
Muxing mode : Packed bitstream
Codec ID : XVID
Codec ID/Hint : XviD
Duration : 1h 29mn
Bit rate : 2 126 Kbps
Width : 698 pixels
Height : 490 pixels
Display aspect ratio : 1.424
Frame rate : 25.000 fps
Color space : YUV
Chroma subsampling : 4:2:0
Bit depth : 8 bits
Scan type : Progressive
Compression mode : Lossy
Bits/(Pixel*Frame) : 0.249
Stream size : 1.33 GiB (91%)
Writing library : XviD 1.1.0 Beta2 (UTC 2005-04-04)

Audio
ID : 1
Format : MPEG Audio
Format version : Version 1
Format profile : Layer 2
Codec ID : 50
Duration : 1h 29mn
Bit rate mode : Constant
Bit rate : 192 Kbps
Channel(s) : 2 channels
Sampling rate : 48.0 KHz
Compression mode : Lossy
Stream size : 123 MiB (8%)
Alignment : Aligned on interleaves
Interleave, duration : 40 ms (1.00 video frame)
Interleave, preload duration : 504 ms
Скриншоты:


Время раздачи: По возможности.
Реставрация от: АлексКуз
[NNMClub.to]_Perestupit' chertu.torrent
 Торрент: Платиновая раздача  Зарегистрирован
 
Скачать


Примагнититься
 Зарегистрирован:   25 Авг 2021 07:45:20
 Размер:   2.18 GB  (
 Рейтинг:   4.8 (Голосов: 53)
 Поблагодарили:   218
 Проверка:   Оформление проверено модератором 25 Авг 2021 07:46:14
Как cкачать  ·  Как раздать  ·  Правильно оформить  ·  Поднять ратио!  
mitrey
Стаж: 12 лет 3 мес.
Сообщений: 32
Ratio: 24.971
100%
afghanistan.gif
В свое время очень запомнился этот фильм, отличный советский триллер. так же в нем замечен совсем молодой виа алиса.
mirkant
Стаж: 11 лет 4 мес.
Сообщений: 14
Ratio: 22.315
72.06%
Откуда: Планета Земля
krevedko.png
Фильм на мой взгляд просто потрясающий - игра актеров превосходит любые ожидания. Фильм довольно философский, однако закручен на основе детектива. Всем советую, автору огромный респект давно искал но в оцифровке фильма не было.
NewMaestro
Стаж: 11 лет 5 мес.
Сообщений: 76
Ratio: 0.168
100%
belarus.gif
Добрый день!
Есть то на раздаче?
NorthOn
 
Админ
Стаж: 15 лет 4 мес.
Сообщений: 14932
Ratio: 928.569
Поблагодарили: 14607
100%
nnm-club.gif
Торрент обновлен в рамках акции Включаем DHT в древних раздачах
Просьба к скачавшим ранее и желающим подключиться к раздаче, перекачать торрент-файл.

_________________
Либо я найду путь, либо проложу его...
Gapsal
Стаж: 3 года 2 мес.
Сообщений: 24
Ratio: 19.75
96.22%
На обложке Васильева сильно напоминает нынешнее лицо МИДа Марию Захарову)))
Zedoeg
Стаж: 9 лет 2 мес.
Сообщений: 259
Ratio: 1.882
15.84%
Откуда: Ленинград
ussr.gif
Казалось бы минорная муть. Однако затягивает каждый раз как смотрю. Считаю - один из лучших советских детективов.
tmp-100500
Стаж: 2 года 6 мес.
Сообщений: 251
Ratio: 49.535
100%
вот это жесть! с точки современного зрителя, а не 80-х, увлечённого оккультизмом, и прочей бредятиной, вроде, позже возникших: болтуна кашпировского и молчуна чумака.

на детектив не тянет вообще! никак!
больше похоже на "поймать хайп" на упомянутом оккультизме. и всЁ!

да, крупные планы татьяны васильевой удались. но это всё, что удалось режиссёру.

не советую к просмотру.
Zedoeg
Стаж: 9 лет 2 мес.
Сообщений: 259
Ratio: 1.882
15.84%
Откуда: Ленинград
ussr.gif
Гипноз или НЛП - оккультизм? Фокусник Данилин понятным языком всё объяснил. Смотрите внимательнее. Детектив, в первую очередь поиск и даже не обязательно с криминальной составляющей. Если купившись на название фильма ожидали что переступившим черту ноги будут отрывать, сочувствую в разочаровании.
Показать сообщения:   
Начать новую тему   Ответить на тему    Торрент-трекер NNM-Club -> Классика кино и Старые фильмы до 90-х -> Старые Отечественные Фильмы (HD*Rip/LQ, DVDRip, SATRip, VHSRip) Часовой пояс: GMT + 3
Страница 1 из 1