Классический форум-трекер
canvas not supported
Нас вместе: 4 103 308

The Pretenders - Greatest Hits (2000) [FLAC|Lossless]<Rock/New Wave>


 
 
RSS
Начать новую тему   Ответить на тему    Торрент-трекер NNM-Club -> Rock, Alternative, Punk, Metal -> Alternative, Punk (Lossless)
Автор Сообщение
val64 ®
Стаж: 10 лет 7 мес.
Сообщений: 71
Ratio: 21,299
Поблагодарили: 1276
99.02%
russia.gif
The Pretenders - Greatest Hits (2000)
Год: 2000
Жанр: Rock/New Wave
Продолжительность: 01:13:35
Формат: FLAC (image+.cue)
Битрейт: Lossless

Треклист:
1. Brass in Pocket
2. Message of Love
3. Don't Get Me Wrong
4. Kid
5. Human (Tin Tin Out Remix)
6. I Go to Sleep
7. Forever Young
8. I Got You Babe (UB40 & Chrissie Hynde)
9. Night in My Veins
10. Spiritual High (State of Independance) (Moodswings & Chrissie Hynde)
11. Talk of the Town
12. Stop Your Sobbing
13. Hymn to Her
14. 2000 Miles
15. Breakfast in Bed (UB40 & Chrissie Hynde)
16. Popstar
17. Middle of the Road
18. Thin Line Between Love and Hate
19. Back on the Chain Gang
20. I'll Stand by You
CD-Rip. Сканы обложек и диска внутри.
Код:

Exact Audio Copy V0.99 prebeta 5 from 4. May 2009

Отчёт EAC об извлечении, выполненном 10. января 2010, 17:39

The Pretenders / Greatest Hits

Дисковод: HL-DT-STDVDRAM GSA-H10N   Adapter: 0  ID: 0

Режим чтения                 : Достоверность
Использование точного потока : Да
Отключение кэша аудио        : Да
Использование указателей C2  : Нет

Коррекция смещения при чтении                     : 667
Способность читать области Lead-in и Lead-out     : Нет
Заполнение пропущенных сэмплов тишиной            : Да
Удаление блоков с тишиной в начале и конце        : Нет
При вычислениях CRC использовались нулевые сэмплы : Да
Интерфейс                                         : Встроенный Win32-интерфейс для Win NT/2000

Выходной формат : Внутренние WAV-операции
Формат сэмплов  : 44.100 Гц; 16 бит; стерео

TOC извлечённого CD

     Трек |   Старт  | Длительность | Начальный сектор | Конечный сектор
    ---------------------------------------------------------------------
       1  |  0:00.00 |    3:06.32   |           0      |      13981
       2  |  3:06.32 |    3:25.45   |       13982      |      29401
       3  |  6:32.02 |    3:48.15   |       29402      |      46516
       4  | 10:20.17 |    3:04.38   |       46517      |      60354
       5  | 13:24.55 |    3:55.05   |       60355      |      77984
       6  | 17:19.60 |    2:56.70   |       77985      |      91254
       7  | 20:16.55 |    5:04.05   |       91255      |     114059
       8  | 25:20.60 |    3:08.55   |      114060      |     128214
       9  | 28:29.40 |    3:17.50   |      128215      |     143039
      10  | 31:47.15 |    4:30.32   |      143040      |     163321
      11  | 36:17.47 |    3:13.70   |      163322      |     177866
      12  | 39:31.42 |    2:38.35   |      177867      |     189751
      13  | 42:10.02 |    4:57.08   |      189752      |     212034
      14  | 47:07.10 |    3:40.35   |      212035      |     228569
      15  | 50:47.45 |    3:17.47   |      228570      |     243391
      16  | 54:05.17 |    3:41.08   |      243392      |     259974
      17  | 57:46.25 |    4:14.27   |      259975      |     279051
      18  | 62:00.52 |    3:41.23   |      279052      |     295649
      19  | 65:42.00 |    3:52.55   |      295650      |     313104
      20  | 69:34.55 |    4:00.57   |      313105      |     331161

Характеристики диапазона извлечения и сообщения об ошибках

Выбранный диапазон

     Имя файла I:\The Pretenders - Greatest Hits\The Pretenders - Greatest Hits.wav

     Пиковый уровень 99.6 %
     Качество диапазона 100.0 %
     CRC копии 8E929E78
     Копирование... OK

Ошибок не произошло

AccurateRip: сводка

Трек  1  точное извлечение (доверие 105)  [C3CFC62D]
Трек  2  точное извлечение (доверие 103)  [92B68AC1]
Трек  3  точное извлечение (доверие 106)  [D8D794EA]
Трек  4  точное извлечение (доверие 103)  [B7F05853]
Трек  5  точное извлечение (доверие 104)  [56572649]
Трек  6  точное извлечение (доверие 104)  [80085103]
Трек  7  точное извлечение (доверие 103)  [3B2B079E]
Трек  8  точное извлечение (доверие 107)  [4AC150D9]
Трек  9  точное извлечение (доверие 103)  [6AA75FE9]
Трек 10  точное извлечение (доверие 103)  [F796DEC5]
Трек 11  точное извлечение (доверие 103)  [E6E7CA07]
Трек 12  точное извлечение (доверие 101)  [077F3493]
Трек 13  точное извлечение (доверие 103)  [5F6208D0]
Трек 14  точное извлечение (доверие 103)  [70B04795]
Трек 15  точное извлечение (доверие 101)  [B2B389F8]
Трек 16  точное извлечение (доверие 101)  [AD4963D1]
Трек 17  точное извлечение (доверие 103)  [6A866EC8]
Трек 18  точное извлечение (доверие 101)  [7F84853A]
Трек 19  точное извлечение (доверие 105)  [26A99AC2]
Трек 20  точное извлечение (доверие 103)  [24853F98]

Все треки извлечены точно

Конец отчёта
Код:

AUDIOCHECKER v2.0 beta (build 457) - by Dester - opdester@freemail.hu
~~~~~~~~~~~~~~~~~~~~~~~~~~~~~~~~~~

Started at: воскресенье, 10. 01. 2010. - 17:43.34
1 file found

1 -===- I:\The Pretenders - Greatest Hits\The Pretenders - Greatest Hits.flac
  Extracted successfully
  Conclusion: this track is CDDA with probability 99%
  Tempfile successfully deleted.

Finished at: воскресенье, 10. 01. 2010. - 17:55.21 (operation time: 0:11.47)
Время раздачи: С 10:00 до 01:00 по мск. вр.
Другие альбомы группы:
Pretenders - Pretenders [AF Gold HDCD 052] (2009)
Pretenders - Last of the Independents (1994)
The Pretenders - Pretenders II (1981)


Поглощение/вытеснение
Только с согласия релизера

J_Man

Реставрация от: DesideriuM82
[NNM-Club.ru]_The Pretenders - Greatest Hits.torrent
 Торрент: Платиновая раздача  Зарегистрирован
 
Скачать


 Зарегистрирован:   10 Янв 2010 19:55:17
 Размер:   520 MB  (
 Рейтинг:   4,7 (Голосов: 13)
 Поблагодарили:   40
 Проверка:   Оформление проверено модератором 10 Янв 2010 23:33:03
Как cкачать  ·  Как раздать  ·  Правильно оформить  ·  Поднять ратио!  
denishak
Стаж: 10 лет 3 мес.
Сообщений: 184
Ratio: 14,491
Поблагодарили: 11491
100%
Откуда: Советского Союза
ussr.gif
Вдохновила аж жуть! Вот! :супер!:
denishak
Стаж: 10 лет 3 мес.
Сообщений: 184
Ratio: 14,491
Поблагодарили: 11491
100%
Откуда: Советского Союза
ussr.gif
И ещё раз хочу сказать спасибо. :клево:
Слушаю этот альбом уже целую неделю, практически без перерыва, и не перестаю восхищаться силой этого сборника. :ура:
Пробило ностальгией до самой глубины. :поклоняется:
delfin4uk
Стаж: 10 лет 7 мес.
Сообщений: 1
Ratio: 4,264
4.35%
ukraine.gif
станьте на роздачу!
Игорь-Вал​ерьевич​
Сталкер, Спонсор, Реставратор Клуба
 
Стаж: 9 лет
Сообщений: 3937
Ratio: 43,249
Поблагодарили: 135988
100%
Реставрация
Показать сообщения:   
Начать новую тему   Ответить на тему    Торрент-трекер NNM-Club -> Rock, Alternative, Punk, Metal -> Alternative, Punk (Lossless) Часовой пояс: GMT + 3
Страница 1 из 1