Классический форум-трекер
canvas not supported
Нас вместе: 4 078 013

Сплетня / Gossip (2000) DVDRip


 
 
RSS
Начать новую тему   Ответить на тему    Торрент-трекер NNM-Club -> Зарубежное кино -> Зарубежные Фильмы (HD*Rip/LQ, DVDRip, SATRip, VHSRip)
Автор Сообщение
dmitryvodka ®
Стаж: 12 лет
Сообщений: 145
Ratio: 1,49
Поблагодарили: 1283
100%
belarus.gif
Сплетня / Gossip (2000) DVDRip
Жанр: Триллер, Драма, Детектив

Описание:
Вы уже слышали? Конечно это - всего лишь сплетня, но... смертельно опасная. Несколько студентов факультета журналистики престижного колледжа решили проверить: как рождается сплетня, как она обрастает подробностями, изменяясь до неузнаваемости, по каким каналам и с какой скоростью расходится. С этой целью, после вечеринки, где известная красавица напилась до потери сознания, они пускают слух, что она переспала с одним из участников попойки. Сплетня быстро обрастает подробностями и распространяется по городку. Неплохой материал для курсовой работы, вот только... результат этого эксперимента нельзя вернуть в пробирку. Девушка, о которой сплетня была запущена, считает, что ее изнасиловали, и подает заявление в полицию. Парня, с которым она, якобы, переспала, арестовывают. Друзья уже не рады своей затее и пытаются объяснить затронутым лицам, что все это был розыгрыш с учебной целью, но им уже никто не верит… Они понимают, что сплетня может погубить многих, включая и своих создателей.

Режиссер: Дэвис Гуггенхейм
Актеры: Джеймс Мэрсден, Лена Хиди, Норман Ридус, Кейт Хадсон, Эрик Богосян, Эдвард Джеймс Олмос, Джошуа Джексон, Шарон Лоуренс, Мариса Кохлан

Продолжительность: 01:26:42
Перевод: Дублированный



Дата мировой премьеры: 21.04.2000

Видеокодек: Xvid
Битрейт видео: ~1849 Кбит/с
Размер кадра: 704x304
Качество видео: DVDRip
Аудиокодек: AC3 5.1
Битрейт аудио: 384 Кбит/с
Код: выделить все
Общее
Полное имя                               : Spletnya.2000.DVDRip.avi
Формат                                   : AVI
Формат/Информация                        : Audio Video Interleave
Размер файла                             : 1,35 Гбайт
Продолжительность                        : 1 ч. 26 м.
Общий поток                              : 2237 Кбит/сек
Программа кодирования                    : VirtualDubMod 1.5.4.1 (build 2178/release)
Библиотека кодирования                   : VirtualDubMod build 2178/release

Видео
Идентификатор                            : 0
Формат                                   : MPEG-4 Visual
Профиль формата                          : Simple@L3
Настройки формата                        : Custom Matrix
Параметр BVOP формата                    : Нет
Параметр QPel формата                    : Нет
Параметр GMC формата                     : Без точки перехода
Параметр матрицы формата                 : Выборочная
Идентификатор кодека                     : XVID
Идентификатор кодека/Подсказка           : XviD
Продолжительность                        : 1 ч. 26 м.
Битрейт                                  : 1846 Кбит/сек
Ширина                                   : 704 пикселя
Высота                                   : 304 пикселя
Соотношение сторон                       : 2,35:1
Частота кадров                           : 25,000 кадров/сек
Цветовое пространство                    : YUV
Субдискретизация насыщенности            : 4:2:0
Битовая глубина                          : 8 бит
Тип развёртки                            : Прогрессивная
Метод сжатия                             : С потерями
Бит/(Пиксели*Кадры)                      : 0.345
Размер потока                            : 1,12 Гбайт (83%)
Библиотека кодирования                   : XviD 1.0.3 (UTC 2004-12-20)

Аудио
Идентификатор                            : 1
Формат                                   : AC-3
Формат/Информация                        : Audio Coding 3
Коммерческое название                    : Dolby Digital
Идентификатор кодека                     : 2000
Продолжительность                        : 1 ч. 26 м.
Вид битрейта                             : Постоянный
Битрейт                                  : 384 Кбит/сек
Каналы                                   : 6 каналов
ChannelLayout                            : L R C LFE Ls Rs
Частота                                  : 48,0 КГц
Частота кадров                           : 31,250 кадров/сек (1536 SPF)
Битовая глубина                          : 16 бит
Метод сжатия                             : С потерями
Задержка видео                           : 8 мс.
Размер потока                            : 238 Мбайт (17%)
Выравнивание                             : Разделение по промежуткам
Продолжительность промежутка             : 96  мс. (2,40 видеокадра)
Время предзагрузки промежутка            : 96  мс.
ServiceKind/String                       : Complete Main
Скриншоты:

Время раздачи: 24/7 - круглосуточно
[NNM-Club.ru]_Spletnya.2000.DVDRip.avi.torrent
 Торрент: Платиновая раздача  Зарегистрирован
 
Скачать


Примагнититься
 Зарегистрирован:   18 Авг 2019 17:51:39
 Размер:   1,35 GB  (
 Рейтинг:   4,8 (Голосов: 51)
 Поблагодарили:   243
 Проверка:   Оформление проверено модератором 18 Авг 2019 17:56:16
Как cкачать  ·  Как раздать  ·  Правильно оформить  ·  Поднять ратио!  
Letizia
Стаж: 9 лет 9 мес.
Сообщений: 165
Ratio: 2,127
Поблагодарили: 1104
100%
Спасибо! Фильм очень интересный!
7slkr
Стаж: 9 лет 7 мес.
Сообщений: 7
Ratio: 4,718
100%
Откуда: Россия
russia.gif
Подскажите плиз ,есть ли на DVD этот фильм?
dmitryvodka ®
Стаж: 12 лет
Сообщений: 145
Ratio: 1,49
Поблагодарили: 1283
100%
belarus.gif
7slkr писал(а): link
Подскажите плиз ,есть ли на DVD этот фильм?

Я в интернете не встречал.

_________________
Valem
Стаж: 9 лет 6 мес.
Сообщений: 27
Ratio: 8,636
100%
russia.gif
Фильм супер! Спасибо.
Vovec800
Стаж: 8 лет 9 мес.
Сообщений: 382
Ratio: 63,091
100%
russia.gif
Прелесть ! 8 из 10.
nikula271
Стаж: 7 лет 6 мес.
Сообщений: 404
Ratio: 17,494
100%
russia.gif
Не ожидал, что этот фильм окажется таким занятным.
NorthOn
 
Админ
Стаж: 13 лет 1 мес.
Сообщений: 12762
Ratio: 989,47
Поблагодарили: 14355
100%
nnm-club.gif
Торрент перерегистрирован в рамках акции Включаем DHT в древних раздачах
Теперь вам нужно его скачать и открыть в торрент-клиенте, указав в качестве места сохранения раздаваемый файл или папку.

_________________
Либо я найду путь, либо проложу его...
Показать сообщения:   
Начать новую тему   Ответить на тему    Торрент-трекер NNM-Club -> Зарубежное кино -> Зарубежные Фильмы (HD*Rip/LQ, DVDRip, SATRip, VHSRip) Часовой пояс: GMT + 3
Страница 1 из 1