Классический форум-трекер
canvas not supported
Нас вместе: 4 154 009

Пять мастеров Шаолинь / Five Shaolin Masters / Shao Lin wu zu (1974) DVDRip [VO]


 
 
RSS
Начать новую тему   Ответить на тему    Торрент-трекер NNM-Club -> Зарубежное кино -> Азиатское кино (SD)
Автор Сообщение
Борисыч ®
Uploader 100+
 
Стаж: 11 лет 3 мес.
Сообщений: 307
Ratio: 1678.71
Поблагодарили: 13052
100%
Пять мастеров Шаолинь / Five Shaolin Masters / Shao Lin wu zu (1974) DVDRip
Производство: Гонконг, Тайвань / Chang's Film Company, Shaw Brothers
Жанр: Боевик, Драма

Режиссер: Чанг Че
Актеры: Дэвид Чианг, Ланг Ти, Шенг Фу, Куан-Чун Чи, Фэй Менг, Ланг Вэй Ванг, Ка-Ян Леунг, Чунг Йи Квай, Чин Хай Чен

Описание:
После сожжения храма Шаолинь пятеро выживших старших послушников сбегают от маньчжуров и, разойдясь в разные стороны, договариваются пройти по стране в поисках патриотов, готовых сражаться с режимом. Однако, старые враги шаолиньцев и предавший их Ма Фу Йи начали разыскивать их с удвоенной силой...



Продолжительность: 01:45:24
Качество видео: DVDRip
Перевод: Одноголосый закадровый, любительский

Видео: DivX 4, 704x288 (2.40:1), ~1464 Kbps, 29.970 fps (0.241 bit/pixel)
Аудио#1: AC3, 2 ch, 192 Kbps - Russian
Аудио#2: AC3, 2 ch, 192 Kbps - Chinese
Код: выделить все
Общее
Полное имя                               : Five.Shaolin.Masters.(DVD.Rip.Rus.by.Gigon).avi
Формат                                   : AVI
Формат/Информация                        : Audio Video Interleave
Размер файла                             : 1,37 Гбайт
Продолжительность                        : 1 ч. 45 м.
Общий поток                              : 1866 Кбит/сек
Программа кодирования                    : VirtualDubMod 1.5.10.2 (build 2540/release)
Библиотека кодирования                   : VirtualDubMod build 2540/release

Видео
Идентификатор                            : 0
Формат                                   : MPEG-4 Visual
Профиль формата                          : Advanced Simple@L5
Параметр BVOP формата                    : 2
Параметр QPel формата                    : Нет
Параметр GMC формата                     : Без точки перехода
Параметр матрицы формата                 : Default (MPEG)
Режим смешивания                         : Сжатый битовый поток
Идентификатор кодека                     : DIVX
Идентификатор кодека/Информация          : Project Mayo
Идентификатор кодека/Подсказка           : DivX 4
Продолжительность                        : 1 ч. 45 м.
Битрейт                                  : 1464 Кбит/сек
Ширина                                   : 704 пикселя
Высота                                   : 288 пикселей
Соотношение сторон                       : 2,40:1
Частота кадров                           : 29,970 кадров/сек
Цветовое пространство                    : YUV
Субдискретизация насыщенности            : 4:2:0
Битовая глубина                          : 8 бит
Тип развёртки                            : Прогрессивная
Метод сжатия                             : С потерями
Бит/(Пиксели*Кадры)                      : 0.241
Размер потока                            : 1,08 Гбайт (78%)
Библиотека кодирования                   : XviD 1.1.2 (UTC 2006-11-01)

Аудио #1
Идентификатор                            : 1
Формат                                   : AC-3
Формат/Информация                        : Audio Coding 3
Расширение режима                        : CM (complete main)
Параметр Endianness формата              : Big
Идентификатор кодека                     : 2000
Продолжительность                        : 1 ч. 45 м.
Вид битрейта                             : Постоянный
Битрейт                                  : 192 Кбит/сек
Каналы                                   : 2 канала
Расположение каналов                     : Front: L R
Частота                                  : 48,0 КГц
Битовая глубина                          : 16 бит
Метод сжатия                             : С потерями
Размер потока                            : 145 Мбайт (10%)
Выравнивание                             : Разделение по промежуткам
Продолжительность промежутка             : 33  мс. (1,00 видеокадр)
Время предзагрузки промежутка            : 500  мс.

Аудио #2
Идентификатор                            : 2
Формат                                   : AC-3
Формат/Информация                        : Audio Coding 3
Расширение режима                        : CM (complete main)
Параметр Endianness формата              : Big
Идентификатор кодека                     : 2000
Продолжительность                        : 1 ч. 45 м.
Вид битрейта                             : Постоянный
Битрейт                                  : 192 Кбит/сек
Каналы                                   : 2 канала
Расположение каналов                     : Front: L R
Частота                                  : 48,0 КГц
Битовая глубина                          : 16 бит
Метод сжатия                             : С потерями
Размер потока                            : 145 Мбайт (10%)
Выравнивание                             : Разделение по промежуткам
Продолжительность промежутка             : 33  мс. (1,00 видеокадр)
Время предзагрузки промежутка            : 500  мс.
Скриншоты:

[NNM-Club.ru]_Five.Shaolin.Masters.(DVD.Rip.Rus.by.Gigon).avi.torrent
 Торрент: Платиновая раздача  Зарегистрирован
 
Скачать


Примагнититься
 Зарегистрирован:   05 Июл 2019 13:03:23
 Размер:   1.37 GB  (
 Рейтинг:   4.6 (Голосов: 31)
 Поблагодарили:   143
 Проверка:   Оформление проверено модератором 05 Июл 2019 19:54:36
Как cкачать  ·  Как раздать  ·  Правильно оформить  ·  Поднять ратио!  
asvabaditelb
Стаж: 11 лет 10 мес.
Сообщений: 75
Ratio: 4.095
Поблагодарили: 422
100%
belarus.gif
:выпивают: :ура: :да:
Nemec555
Стаж: 8 лет 10 мес.
Сообщений: 801
Ratio: 106.675
Раздал: 58.94 TB
Поблагодарили: 2885
100%
Откуда: Берлин
germany.gif
Хоть и любитель таких фильмов, но мне не понравился. Как-то всё через чур по-детски выглядит...
karfagen1975
RG NNM Club Video
Uploader 100+
Стаж: 10 лет 6 мес.
Сообщений: 4761
Ratio: 202.05
Раздал: 119.7 TB
Поблагодарили: 383696
100%
ussr.gif
Торрент перерегистрирован на трекере в рамках акции Включаем DHT в древних раздачах (Обновлено)
Теперь вам нужно его скачать и открыть в торрент-клиенте, указав в качестве места сохранения раздаваемый файл или папку.
Показать сообщения:   
Начать новую тему   Ответить на тему    Торрент-трекер NNM-Club -> Зарубежное кино -> Азиатское кино (SD) Часовой пояс: GMT + 3
Страница 1 из 1