Классический форум-трекер
canvas not supported
Нас вместе: 4 093 113

Классик (1998) DVDRip


 
 
RSS
Начать новую тему   Ответить на тему    Торрент-трекер NNM-Club -> Отечественное кино -> Отечественные Фильмы (HD*Rip/LQ, DVDRip, SATRip, VHSRip)
Автор Сообщение
ShmatOFF ®
Стаж: 9 лет 9 мес.
Сообщений: 167
Ratio: 52,429
Раздал: 38,51 TB
Поблагодарили: 546
100%
pirates.png
Классик (1998) DVDRip
«Вся наша жизнь...игра!!!»

Год выпуска: 1998
Производство: Россия, Кинокомпания "КиноМост"
Жанр: Боевик, криминал
Субтитры: Отсутствуют

Дата российской премьеры: 07 апреля 1998
Дата выхода DVD релиза: 16 марта 2009, «Русское счастье»

Режиссер: Георгий Шенгелия
Сценарий: Елена Караваешникова, Георгий Шенгелия, Павел Чухрай
Продюсер: Владимир Досталь, Виктор Глухов
Актеры: Сергей Никоненко, Юозас Будрайтис, Алексей Гуськов, Валентина Теличкина, Лидия Вележева, Александр Панкратов-Черный, Владимир Этуш, Владимир Зельдин, Евгений Серов, Михаил Шишков, Анатолий Журавлев, Валерий Баринов, Валерий Фрид, Михаил Хомяков, Юрий Слободенюк, Михаил Шашков, Наиль Идрисов, Арий Чумаков, Дмитрий Тарасов, Виктор Савкин, Александр Коданев, Геннадий Бордачёв, Владимир Литвинов, Алексей Крыченков, Н. Кузнецов

Описание фильма:
Действующие «асы» бильярда из разных городов России решили сообща сделать подарок своим учителям, доживающим свои дни в богадельнях. Они решили собрать деньги и поселить своих бывших бильярдных наставников в приличном поместье — особняке с участком, с достойным обслуживанием и питанием. Смоленские, питерские и московские авторитеты бильярда сделали свой вклад в «общак».

Дошла очередь до одного из областных авторитетов Савицкого. Вначале он не пожелал участвовать в общем деле, но когда его пристыдили, дал 20 тысяч «зелёных», но вслед сборщикам послал убийц. Те решили, что сделали своё дело, и в руки Савицкого попала вся собранная сумма. Но курьеры смогли выжить после нападения и рассказали всё. И тогда был разработан хитрый план…



Продолжительность: 01:40:29
Качество видео: DVDRip

Видеокодек: Xvid
Битрейт видео: 1747 кбит/c
Размер кадра: 720x544
Аудиокодек: AC3, 2 ch
Битрейт аудио: 192 кбит/c
  • Ника, 1999 год
    Номинация (1):
    Лучшая мужская роль (Сергей Никоненко)

  • Кинотавр, 1999 год
    Номинация (1):
    Главный приз «Золотая роза»

  • Кинофестиваль «Созвездие», 1999
    Победа (2):
    Лучшая главная мужская роль (Сергей Никоненко)
    Лучшая мужская роль второго плана (Алексей Гуськов)
  • Фильм снят в городе Суздаль Владимирской области на территории гостиничного комплекса «Суздаль»
  • Косвенное упоминание о фильме встречается в сериале «Мошенники», где герой Алексея Гуськова произносит фразу: „— А я на бильярде! Тряхну стариной!“, тем самым намекая на свою отличную игру в фильме «Классик».
General
Complete name : D:\Klassik.1998.XviD.DVDRip.avi
Format : AVI
Format/Info : Audio Video Interleave
File size : 1.37 GiB
Duration : 1h 40mn
Overall bit rate : 1 946 Kbps
Writing application : VirtualDubMod 1.5.4.1 (build 2178/release)
Writing library : VirtualDubMod build 2178/release

Video
ID : 0
Format : MPEG-4 Visual
Format profile : Advanced Simple@L5
Format settings, BVOP : 1
Format settings, QPel : No
Format settings, GMC : No warppoints
Format settings, Matrix : Custom
Codec ID : XVID
Codec ID/Hint : XviD
Duration : 1h 40mn
Bit rate : 1 747 Kbps
Width : 720 pixels
Height : 544 pixels
Display aspect ratio : 4:3
Frame rate : 25.000 fps
Color space : YUV
Chroma subsampling : 4:2:0
Bit depth : 8 bits
Scan type : Progressive
Compression mode : Lossy
Bits/(Pixel*Frame) : 0.178
Stream size : 1.23 GiB (90%)
Writing library : XviD 1.2.0.dev47 (UTC 2006-11-01)

Audio
ID : 1
Format : AC-3
Format/Info : Audio Coding 3
Mode extension : CM (complete main)
Format settings, Endianness : Big
Codec ID : 2000
Duration : 1h 40mn
Bit rate mode : Constant
Bit rate : 192 Kbps
Channel(s) : 2 channels
Channel positions : Front: L R
Sampling rate : 48.0 KHz
Bit depth : 16 bits
Compression mode : Lossy
Stream size : 138 MiB (10%)
Alignment : Split accross interleaves
Interleave, duration : 96 ms (2.40 video frames)
Interleave, preload duration : 96 ms
Language : Russian
Скриншоты:


Время раздачи: 24/7
Реставрация от: АлексКуз
[NNM-Club.ru]_Klassik.1998.XviD.DVDRip.avi.torrent
 Торрент: Платиновая раздача  Зарегистрирован
 
Скачать


 Зарегистрирован:   23 Авг 2010 04:18:52
 Размер:   1,37 GB  (
 Рейтинг:   4,9 (Голосов: 77)
 Поблагодарили:   212
 Проверка:   Оформление проверено модератором 23 Авг 2010 08:01:21
Как cкачать  ·  Как раздать  ·  Правильно оформить  ·  Поднять ратио!  
6Chikper6
Стаж: 9 лет 9 мес.
Сообщений: 254
Ratio: 0,723
100%
romania.gif
Заранее большое спасибо!!!
AgentOrange
Стаж: 10 лет 9 мес.
Сообщений: 705
Ratio: 13,666
Поблагодарили: 1901
100%
nnm-club.gif
Спасибо! Фильм отличный!
кобра77
Стаж: 8 лет 5 мес.
Сообщений: 265
Ratio: 8,964
100%
спасимбо
Показать сообщения:   
Начать новую тему   Ответить на тему    Торрент-трекер NNM-Club -> Отечественное кино -> Отечественные Фильмы (HD*Rip/LQ, DVDRip, SATRip, VHSRip) Часовой пояс: GMT + 3
Страница 1 из 1