Классический форум-трекер
canvas not supported
Нас вместе: 4 234 171

Деликатесы / Delicatessen (1991) BDRip


Страницы:   Пред.  1, 2 
 
RSS
Начать новую тему   Ответить на тему    Торрент-трекер NNM-Club -> Зарубежное кино -> Зарубежные Фильмы (SD)
Автор Сообщение
Dobrenko ®
Стаж: 15 лет 8 мес.
Сообщений: 6502
Ratio: 28.506
Поблагодарили: 755402
100%
Откуда: Одесса-Москва
Деликатесы / Delicatessen
Жанр: триллер, фэнтези, черная комедия, мелодрама, драма

Режиссер: Марк Каро, Жан-Пьер Жёне
Актеры: Доминик Пинон (Louison), Мари-Лор Дуньяк (Julie Clapet), Карин Виар (Mademoiselle Plusse), Жан-Клод Дрейфус (Clapet), Тикки Ольгадо (Marcel Tapioca), Анн-Мари Пизани (Madame Tapioca), Эдит Кер (Grandmother), Жак Мату (Roger), Рюфюс (Robert Kube), Ховард Вернон (Frog Man), Чик Ортега (Postman), Сильви Лагюна (Aurore Interligator)

Описание:
Домовладелец хозяйничает в мясной лавке на первом этаже и кормит жильцов, которые являются и клиентами, и сырьем для продукции. Беда в том, что в них постоянно влюбляется близорукая и мышеподобная дочь мясника.В прошлом обычно гастрономия одерживала верх над романтическими устремлениями, но новый претендент произвел на нее такое сильное впечатление, что фарша не получилось. Мясник не может поверить в происходящее, но что-то заставляет его откладывать «разделку», пока соседи не начинают жаловаться на нехватку мяса в ежедневном меню.

Качество видео: BDRip
Продолжительность: 01:39:21
Cубтитры: Русские, Английские (отдельно)
Перевод: Одноголосый (авторский, Константин Дьяконов) / Оригинальный (французский)



Видео: XviD build 56, 704x384 (1.83:1), 24.000 fps, 1703 kbps avg, 0.26 bit/pix
Аудио1: 48 kHz, AC3 Dolby Digital, 2/0 (L,R) ch, 224.00 kbps avg | AVO
Аудио2: 48 kHz, AC3 Dolby Digital, 2/0 (L,R) ch, 224.00 kbps avg | Orig
Код: выделить все
Общее
Полное имя                               : G:\T_f\Delicatessen_BDRip\Delicatessen.1991.avi
Формат                                   : AVI
Формат/Информация                        : Audio Video Interleave
Размер файла                             : 1,46 Гбайт
Продолжительность                        : 1 ч. 39 м.
Общий поток                              : 2 102 Кбит/сек
Режиссёр                                 : zim2001
Программа кодирования                    : VirtualDubMod 1.5.10.2 (build 2540/release)

Видео
Идентификатор                            : 0
Формат                                   : MPEG-4 Visual
Профиль формата                          : Advanced Simple@L5
Настройки формата                        : BVOP2 / Custom Matrix
Параметр BVOP формата                    : 2
Параметр QPel формата                    : Нет
Параметр GMC формата                     : Без точки перехода
Параметр матрицы формата                 : Выборочная
Идентификатор кодека                     : XVID
Идентификатор кодека/Подсказка           : XviD
Продолжительность                        : 1 ч. 39 м.
Битрейт                                  : 1 704 Кбит/сек
Ширина                                   : 704 пикселя
Высота                                   : 384 пикселя
Соотношение сторон                       : 1,85:1
Частота кадров                           : 24,000 кадра/сек
Цветовое пространство                    : YUV
Субдискретизация насыщенности            : 4:2:0
Битовая глубина                          : 8 бит
Тип развёртки                            : Прогрессивная
Метод сжатия                             : С потерями
Бит/(Пиксели*Кадры)                      : 0.263
Размер потока                            : 1,18 Гбайт (81%)
Библиотека кодирования                   : XviD 56

Аудио #1
Идентификатор                            : 1
Формат                                   : AC-3
Формат/Информация                        : Audio Coding 3
Коммерческое название                    : Dolby Digital
Идентификатор кодека                     : 2000
Продолжительность                        : 1 ч. 39 м.
Вид битрейта                             : Постоянный
Битрейт                                  : 224 Кбит/сек
Каналы                                   : 2 канала
Channel layout                           : L R
Частота                                  : 48,0 КГц
Частота кадров                           : 31,250 кадров/сек (1536 SPF)
Метод сжатия                             : С потерями
Размер потока                            : 159 Мбайт (11%)
Выравнивание                             : Разделение по промежуткам
Продолжительность промежутка             : 42  мс. (1,00 видеокадр)
Время предзагрузки промежутка            : 500  мс.
Service kind                             : Complete Main

Аудио #2
Идентификатор                            : 2
Формат                                   : AC-3
Формат/Информация                        : Audio Coding 3
Коммерческое название                    : Dolby Digital
Идентификатор кодека                     : 2000
Продолжительность                        : 1 ч. 39 м.
Вид битрейта                             : Постоянный
Битрейт                                  : 160 Кбит/сек
Каналы                                   : 2 канала
Channel layout                           : L R
Частота                                  : 48,0 КГц
Частота кадров                           : 31,250 кадров/сек (1536 SPF)
Метод сжатия                             : С потерями
Размер потока                            : 114 Мбайт (8%)
Выравнивание                             : Разделение по промежуткам
Продолжительность промежутка             : 42  мс. (1,00 видеокадр)
Время предзагрузки промежутка            : 500  мс.
Service kind                             : Complete Main


Время раздачи: 24/7 - круглосуточно
[NNM-Club.ru]_Delicatessen_BDRip.torrent
 Торрент: Платиновая раздача  Зарегистрирован
 
Скачать


Примагнититься
 Зарегистрирован:   25 Мар 2023 08:06:44
 Размер:   1.46 GB  (
 Рейтинг:   4.7 (Голосов: 60)
 Поблагодарили:   273
 Проверка:   Оформление проверено модератором 25 Мар 2023 09:15:06
Как cкачать  ·  Как раздать  ·  Правильно оформить  ·  Поднять ратио!  
Помидор1978
Стаж: 13 лет 8 мес.
Сообщений: 258
Ratio: 8.329
0.3%
Очень интересное кино, отличный черный юмор.
Показать сообщения:   
Начать новую тему   Ответить на тему    Торрент-трекер NNM-Club -> Зарубежное кино -> Зарубежные Фильмы (SD) Часовой пояс: GMT + 3
Страницы:   Пред.  1, 2
Страница 2 из 2