Классический форум-трекер
canvas not supported
Нас вместе: 4 234 480

Фестиваль "Нашествие 2011 " («Браво») (09.07.2011) WebRip <Rock>


 
 
RSS
Начать новую тему   Ответить на тему    Торрент-трекер NNM-Club -> Театр и Музыкальное видео -> Концерты (SD)
Автор Сообщение
Metr_72 ®
Релизер-меломан
Стаж: 17 лет 2 мес.
Сообщений: 2434
Ratio: 13.061
Поблагодарили: 28051
100%
Откуда: Rivne Сельская местность
ukraine.gif
Фестиваль "Нашествие 2011 " («Браво») (09.07.2011) WebRip <Rock>
Жанр:
Rock

Описание:

В минувшие выходные в Тверской области состоялся ежегодный музыкальный фестиваль «Нашествие».

Проведению опен-эйра препятствовала эпидемия африканской чумы свиней (мнимая или настоящая?), из-за которой на территории Тверской области были отменены все массовые мероприятия.
Но «Нашествие» непотопляемо: несмотря на проблемы с властями региона, оно все-таки состоялось, и в этом году отметило свой десятилетний юбилей. «Главное приключение лета» посетило более 170 000 человек.

Группа "Браво" исполнила 14 песен. Среди них были как старые так и новые. Некоторые песни дополнялись танцевальными номерами.


Продолжительность: 01:05:18
Видеокодек: DivX 4
Битрейт видео: 1998 Кbps
Размер кадра: 640x360
Качество видео: WebRip
Аудио окодек: MP3 2.0
Битрейт аудио: 192 Kbps


Треклист:
01. Любите девушек
02. Мой город Москва
03. Веcсенний день
04. Если бы на Марсе были города
05. Замок из песка
06. Оранжевый галстук
07. Без стыда
08. Все или ничего
09. А любовь не горит
10. Этот город
11. Воздушные шары
12. Дорога в облака
13. Вася
14. Король оранжевое лето


Код:
Полное имя                               : Z:\Концерты\Hashestvie2011_Bravo.avi
Формат                                   : AVI
Формат/Информация                        : Audio Video Interleave
Профиль формата                          : OpenDML
Размер файла                             : 1,01 Гбайт
Продолжительность                        : 1 ч. 5 м.
Общий поток                              : 2206 Кбит/сек
Программа кодирования                    : Lavf52.32.0

Видео
Идентификатор                            : 0
Формат                                   : MPEG-4 Visual
Профиль формата                          : Simple@L1
Параметр BVOP формата                    : Нет
Параметр QPel формата                    : Нет
Параметр GMC формата                     : Без точки перехода
Параметр матрицы формата                 : Default (H.263)
Идентификатор кодека                     : DIVX
Идентификатор кодека/Информация          : Project Mayo
Идентификатор кодека/Подсказка           : DivX 4
Продолжительность                        : 1 ч. 5 м.
Битрейт                                  : 1998 Кбит/сек
Ширина                                   : 640 пикселей
Высота                                   : 360 пикселей
Соотношение сторон                       : 16:9
Частота кадров                           : 23,976 кадра/сек
Цветовое пространство                    : YUV
Субдискретизация насыщенности            : 4:2:0
Битовая глубина                          : 8 бит
Тип развёртки                            : Прогрессивная
Метод сжатия                             : С потерями
Бит/(Пиксели*Кадры)                      : 0.362
Размер потока                            : 933 Мбайт (91%)
Библиотека кодирования                   : Lavc52.22.3

Аудио
Идентификатор                            : 1
Формат                                   : MPEG Audio
Версия формата                           : Version 1
Профиль формата                          : Layer 3
Режим                                    : Joint stereo
Идентификатор кодека                     : 55
Идентификатор кодека/Подсказка           : MP3
Продолжительность                        : 1 ч. 5 м.
Вид битрейта                             : Постоянный
Битрейт                                  : 192 Кбит/сек
Каналы                                   : 2 канала
Частота                                  : 44,1 КГц
Метод сжатия                             : С потерями
Размер потока                            : 89,7 Мбайт (9%)
Выравнивание                             : Соединение по промежуткам
Продолжительность промежутка             : 26  мс. (0,63 видеокадр)
Время предзагрузки промежутка            : 888  мс.
Библиотека кодирования                   : LAME3.98.2

.


Время раздачи: 7 / 24 . . . Не забывайте нажимать на

Реставрация sklad600
[NNM-Club.ru]_Hashestvie2011_Bravo.avi.torrent
 Торрент: Золотая раздача  Зарегистрирован
 
Зарегистрируйтесь и скачайте торрент!
10.2 KB

Примагнититься
 Зарегистрирован:   18 Июл 2011 15:50:37
 Размер:   1.01 GB  (
 Рейтинг:   4.3 (Голосов: 12)
 Поблагодарили:   38
 Проверка:   Оформление проверено модератором 18 Июл 2011 23:38:59
Как cкачать  ·  Как раздать  ·  Правильно оформить  ·  Поднять ратио!  
Surgik
Стаж: 14 лет 5 мес.
Сообщений: 48
Ratio: 23.553
100%
ussr.gif
Исправьте оЧепЯтки: и СПАСИБО!
EXCITER_
Стаж: 15 лет 1 мес.
Сообщений: 623
Ratio: 10.43
100%
Откуда: Moscow
russia.gif
и где сие релиз?
EXCITER_
Стаж: 15 лет 1 мес.
Сообщений: 623
Ratio: 10.43
100%
Откуда: Moscow
russia.gif
пошло дело))
Показать сообщения:   
Начать новую тему   Ответить на тему    Торрент-трекер NNM-Club -> Театр и Музыкальное видео -> Концерты (SD) Часовой пояс: GMT + 3
Страница 1 из 1