Классический форум-трекер
canvas not supported
Нас вместе: 4 205 887

Фантоцци против всех / Fantozzi contro tutti (1980) DVD rip


Страницы:   Пред.  1, 2 
 
RSS
Начать новую тему   Ответить на тему    Торрент-трекер NNM-Club -> Архив торрентов -> Архив Классики и Старого кино
Автор Сообщение
Metr_72 ®
Релизер-меломан
Стаж: 15 лет 5 мес.
Сообщений: 2434
Ratio: 13.061
Поблагодарили: 27692
100%
Откуда: Rivne Сельская местность
ukraine.gif
Фантоцци против всех / Fantozzi contro tutti (1980) DVDRip
Русское название: Фантоцци против всех
Оригинальное название: Fantozzi contro tutti
Год выпуска: 1980
Выпущено: Италия / Maura Film s.r.l.
Жанр: Комедия
Описание фильма:
Третий фильм о злоключениях бухгалтера Уго Фантоцци. К унижениям на работе, опять добавляются личные проблемы. Ночи, проведенные перед телевизором в поисках какого-нибудь эротического фильма… Забавная слежка за женой, увлеченной брутальным булочником. Существование туповатого Фантоцци — настоящая одиссея грустных, и в тоже время, необычайно смешных событий.
Режиссер: Нери Паренти, Паоло Вилладжо
Актеры: Паоло Вилладжо, Милена Вукотич, Жижи Редер, Камилло Милли, Пауль Мюллер, Плинио Фернандо, Гуэррино Кривелло, Анджело Пеллегрино, Пьетро Зардини, Диего Абатантуоно, Джузеппе Анатрелли, Эннио Антонелли, Сильвано Спадаччино
Продолжительность: 01:32:23
Перевод: Одноголосый закадровый



Дата мировой премьеры: 20 ноября 1980
Дата выхода DVD релиза: 28 октября 2008, «Мастер Тэйп»
Видеокодек: DivX 5
Битрейт видео: ~976 Кбит/с
Размер кадра: 576 x 320
Качество видео: DVDRip
Аудио: MP3, 1 ch, 64 Кбит/с
Код:
General
Complete name                    : D:\Fantocci NNM club.ru\Fantozzi.Protiv.Vseh.(rus).AKM73.&.ShareReactor.ru.avi
Format                           : AVI
Format/Info                      : Audio Video Interleave
File size                        : 694 MiB
Duration                         : 1h 32mn
Overall bit rate                 : 1 049 Kbps
Writing application              : VirtualDubMod 1.5.10.1 (build 2366/release)
Writing library                  : VirtualDubMod build 2366/release

Video
ID                               : 0
Format                           : MPEG-4 Visual
Format settings, BVOP            : 1
Format settings, QPel            : No
Format settings, GMC             : No warppoints
Format settings, Matrix          : Default (H.263)
Muxing mode                      : Packed bitstream
Codec ID                         : DX50
Codec ID/Hint                    : DivX 5
Duration                         : 1h 32mn
Bit rate                         : 976 Kbps
Width                            : 576 pixels
Height                           : 320 pixels
Display aspect ratio             : 16:9
Frame rate                       : 25.000 fps
Color space                      : YUV
Chroma subsampling               : 4:2:0
Bit depth                        : 8 bits
Scan type                        : Progressive
Compression mode                 : Lossy
Bits/(Pixel*Frame)               : 0.212
Stream size                      : 645 MiB (93%)
Writing library                  : DivX 5.0.5 (UTC 2003-04-24)

Audio
ID                               : 1
Format                           : MPEG Audio
Format version                   : Version 1
Format profile                   : Layer 3
Codec ID                         : 55
Codec ID/Hint                    : MP3
Duration                         : 1h 32mn
Bit rate mode                    : Constant
Bit rate                         : 64.0 Kbps
Channel(s)                       : 1 channel
Sampling rate                    : 48.0 KHz
Compression mode                 : Lossy
Stream size                      : 42.3 MiB (6%)
Alignment                        : Aligned on interleaves
Interleave, duration             : 40 ms (1.00 video frame)
Interleave, preload duration     : 504 ms
Writing library                  : LAME3.91
Encoding settings                : -m m -V 4 -q 5 -lowpass 13.6 -b 64
Скриншоты:


Время раздачи: 24/7Фантоцци против всех на NNM-Club
Fantocci NNM club.ru.torrent
 Торрент: Платиновая раздача  Зарегистрирован
 
Скачать


 Зарегистрирован:   22 Сен 2007 13:11:34
 Размер:   694 MB  (
 Рейтинг:   4.7 (Голосов: 60)
 Поблагодарили:   125
 Проверка:   Оформление проверено модератором 23 Сен 2007 23:49:07
Как cкачать  ·  Как раздать  ·  Правильно оформить  ·  Поднять ратио!  
Metr_72 ®
Релизер-меломан
Стаж: 15 лет 5 мес.
Сообщений: 2434
Ratio: 13.061
Поблагодарили: 27692
100%
Откуда: Rivne Сельская местность
ukraine.gif
Kalex писал(а):
Metr_72 писал(а):
На нашем трекере можно скачать ВСЕ 10 фальмов из серии о ФАНТОЦЦИ :

Спасибо!
а Синьор Робинзон с этим же актером не входит в эту серию? (вроде есть у нас на трекере), или он шел как отдельный фильм? (я уже забыл).


Я вот здесь http://www.nnmclub.to/forum/viewtopic.php?t=82766 создал тему "Список фильмов с участвием Паоло Виладжио" в разделе ННМ клуб рекомендует !
В списке (на трекере) пока есть 10 фильмов о Фантоцци и 8 других фильмов ( в т.ч. и Синьор Робинзон / Signor Robinson, Il (1976) DVDRip http://www.nnmclub.to/forum/viewtopic.php?t=21790 )
Kalex
Администратор
Стаж: 15 лет
Сообщений: 41578
Ratio: 120.259
Поблагодарили: 14611
100%
nnm-club.gif
Metr_72
Благодарю за информацию, я думал это один общий цикл фильмов (Фантоцци) с его участием.

_________________
NNMClub и IPv6/Teredo
... если преступников недостаточно, их надо создавать. Кому нужна нация, состоящая сплошь из законопослушных граждан? Какая от нее польза? А вот издайте законы, которые нельзя ни соблюдать, ни проводить в жизнь, ни объективно трактовать, и вы получите нацию нарушителей, а значит, сможете заработать на преступлениях... /Айн Рэнд, «Атлант расправил плечи»/
Homasss
Стаж: 14 лет 6 мес.
Сообщений: 11
Ratio: 15.623
Поблагодарили: 32
100%
russia.gif
Качается пустой файл!!!
Одни нули!!!!
Что за [однако].? ;(

И так для 4х серий. Благо Фантоцци на пенсии ещё разбыла выложена.
Metr_72 ®
Релизер-меломан
Стаж: 15 лет 5 мес.
Сообщений: 2434
Ratio: 13.061
Поблагодарили: 27692
100%
Откуда: Rivne Сельская местность
ukraine.gif
Homasss писал(а):
Качается пустой файл!!!
Одни нули!!!!
Что за [однако].? ;(

И так для 4х серий. Благо Фантоцци на пенсии ещё разбыла выложена.

Сегодня по просьбе модератора перепроверил раздаваемый файл. С ним все в порядке. Фильм открывается ВиндосМедиаПлеером, БСплеером и КМплеером.
Кроме того фильм скачало 124 человека и до сих пор никто не жаловался...
Топик был перенесен из форума Зарубежная Классика (HD*Rip/LQ, DVDRip, SATRip, VHSRip) в форум Архив Видео

Причина переноса: Последний раз раздающий был замечен более 6 месяцев назад.

Исправил релиз - напиши ЛС FREEDONOR, дав ссылку на релиз.
Если нет ответа 24 часа - нажми на кнопку "Обратить внимание модераторов".
Топик был перенесен из форума Архив Видео в форум Архив Классики и Старого кино / Артхаус



Исправил релиз - напиши ЛС Kalex, дав ссылку на релиз.
Если нет ответа 24 часа - нажми на кнопку "Обратить внимание модераторов".
Показать сообщения:   
Начать новую тему   Ответить на тему    Торрент-трекер NNM-Club -> Архив торрентов -> Архив Классики и Старого кино Часовой пояс: GMT + 3
Страницы:   Пред.  1, 2
Страница 2 из 2