Классический форум-трекер
canvas not supported
Нас вместе: 4 165 218

Wolves In The Throne Room - Celestial Lineage (2011) [FLAC|Lossless]<Atmospheric Black Metal>


 
 
RSS
Начать новую тему   Ответить на тему    Торрент-трекер NNM-Club -> Архив торрентов -> Архив Музыки
Автор Сообщение
Shuran80 ®
Свободный релизер
 
Стаж: 12 лет 6 мес.
Сообщений: 3348
Ratio: 1102.109
Раздал: 87.06 TB
Поблагодарили: 192286
100%
Откуда: Ленинград
ussr.gif
Wolves In The Throne Room - Celestial Lineage (2011)
Год: 2011
Жанр: Atmospheric Black Metal
Страна: США
Продолжительность: 00:48:55

Издатель: Southern Lord
Номер по каталогу: LORD142
Кодек: FLAC (tracks+.cue)
Битрейт: Lossless

Трек лист:
01. Thuja Magus Imperium (11:42)
02. Permanent Changes In Consciousness (1:55)
03. Subterranean Initiation (7:10)
04. Rainbow Illness (1:28)
05. Woodland Cathedral (5:26)
06. Astral Blood (10:16)
07. Prayer Of Transformation (10:58)
Код:

Exact Audio Copy V1.0 beta 1 from 15. November 2010

EAC extraction logfile from 7. September 2011, 2:59

Wolves In The Throne Room / Celestial Lineage

Used drive  : HL-DT-STDVDRAM GU10N   Adapter: 0  ID: 1

Read mode               : Secure
Utilize accurate stream : Yes
Defeat audio cache      : Yes
Make use of C2 pointers : No

Read offset correction                      : 667
Overread into Lead-In and Lead-Out          : No
Fill up missing offset samples with silence : Yes
Delete leading and trailing silent blocks   : No
Null samples used in CRC calculations       : Yes
Used interface                              : Native Win32 interface for Win NT & 2000
Gap handling                                : Appended to previous track

Used output format              : User Defined Encoder
Selected bitrate                : 320 kBit/s
Quality                         : High
Add ID3 tag                     : No
Command line compressor         : C:\Program Files\Exact Audio Copy\Flac\flac.exe
Additional command line options : -V -8 -T "artist=%a" -T "title=%t" -T "album=%g" -T "date=%y" -T "tracknumber=%n" -T "genre=%m" %s

TOC of the extracted CD

     Track |   Start  |  Length  | Start sector | End sector
    ---------------------------------------------------------
        1  |  0:00.00 | 11:41.70 |         0    |    52644
        2  | 11:41.70 |  1:54.58 |     52645    |    61252
        3  | 13:36.53 |  7:09.55 |     61253    |    93482
        4  | 20:46.33 |  1:28.17 |     93483    |   100099
        5  | 22:14.50 |  5:26.23 |    100100    |   124572
        6  | 27:40.73 | 10:16.32 |    124573    |   170804
        7  | 37:57.30 | 10:57.55 |    170805    |   220134

Track  1

     Filename E:\Wolves In The Throne Room - 2011 - Celestial Lineage\01 - Thuja Magus Imperium.wav

     Pre-gap length  0:00:02.00

     Peak level 99.3 %
     Extraction speed 1.3 X
     Track quality 100.0 %
     Test CRC 5B6420F0
     Copy CRC 5B6420F0
     Track not present in AccurateRip database
     Copy OK

Track  2

     Filename E:\Wolves In The Throne Room - 2011 - Celestial Lineage\02 - Permanent Changes In Consciousness.wav

     Peak level 87.2 %
     Extraction speed 1.1 X
     Track quality 100.0 %
     Test CRC F328F8D3
     Copy CRC F328F8D3
     Track not present in AccurateRip database
     Copy OK

Track  3

     Filename E:\Wolves In The Throne Room - 2011 - Celestial Lineage\03 - Subterranean Initiation.wav

     Peak level 100.0 %
     Extraction speed 1.6 X
     Track quality 100.0 %
     Test CRC 219F16BD
     Copy CRC 219F16BD
     Track not present in AccurateRip database
     Copy OK

Track  4

     Filename E:\Wolves In The Throne Room - 2011 - Celestial Lineage\04 - Rainbow Illness.wav

     Peak level 70.1 %
     Extraction speed 1.3 X
     Track quality 100.0 %
     Test CRC 0AA20D5C
     Copy CRC 0AA20D5C
     Track not present in AccurateRip database
     Copy OK

Track  5

     Filename E:\Wolves In The Throne Room - 2011 - Celestial Lineage\05 - Woodland Cathedral.wav

     Peak level 99.1 %
     Extraction speed 1.8 X
     Track quality 100.0 %
     Test CRC 1A7E11D3
     Copy CRC 1A7E11D3
     Track not present in AccurateRip database
     Copy OK

Track  6

     Filename E:\Wolves In The Throne Room - 2011 - Celestial Lineage\06 - Astral Blood.wav

     Peak level 99.7 %
     Extraction speed 2.1 X
     Track quality 100.0 %
     Test CRC 41D7A9DC
     Copy CRC 41D7A9DC
     Track not present in AccurateRip database
     Copy OK

Track  7

     Filename E:\Wolves In The Throne Room - 2011 - Celestial Lineage\07 - Prayer Of Transformation.wav

     Peak level 100.0 %
     Extraction speed 2.3 X
     Track quality 100.0 %
     Test CRC 100FE368
     Copy CRC 100FE368
     Track not present in AccurateRip database
     Copy OK

None of the tracks are present in the AccurateRip database

No errors occurred

End of status report

==== Log checksum E5C829128C318347B8E8BA1415A4CCC1E6AEA123C67D68770EF2A00A9DB33835 ====
Код:

-----------------------

DON'T MODIFY THIS FILE

-----------------------

PERFORMER: auCDtect Task Manager, ver. 1.5.1RC4 build 1.5.1.5
Copyright (c) 2008-2010 y-soft. All rights reserved
http://y-soft.org

ANALYZER: auCDtect: CD records authenticity detector, version 0.8.2
Copyright (c) 2004 Oleg Berngardt. All rights reserved.
Copyright (c) 2004 Alexander Djourik. All rights reserved.

FILE: 07 - Prayer Of Transformation.flac
  Size: 71483595 Hash: 12E12ABE65C89A6DE85CC195DCBE86CF Accuracy: -m0
  Conclusion: CDDA 100%
  Signature: 67173CB307C7B27C367A9ED54BF2B785DD1FC638
FILE: 06 - Astral Blood.flac
  Size: 70754511 Hash: 92AD38B6ACC456392873AB628C6545C0 Accuracy: -m0
  Conclusion: CDDA 100%
  Signature: 6F189C3BA1485C8488A205F02E38D4E1887123D8
FILE: 05 - Woodland Cathedral.flac
  Size: 36101311 Hash: BDEC6A271EBB60A76DC584C24CC94047 Accuracy: -m0
  Conclusion: CDDA 100%
  Signature: B8FC9D9ED1AE092FD0C0D7392C872E077897EEC6
FILE: 04 - Rainbow Illness.flac
  Size: 8967046 Hash: FC427270593FE0016B171D89CE58A5C8 Accuracy: -m0
  Conclusion: CDDA 100%
  Signature: 9A5B405C46D3F06D937590CE6FEDEAF56D98DF8A
FILE: 03 - Subterranean Initiation.flac
  Size: 52124855 Hash: CF59B461F8D0EFAFA0D08FE1E2326308 Accuracy: -m0
  Conclusion: CDDA 100%
  Signature: 6770F04785653E9ABF5E046446DF818135DA8579
FILE: 02 - Permanent Changes In Consciousness.flac
  Size: 9138537 Hash: 657828215311EE717D91F5FB6652C98C Accuracy: -m0
  Conclusion: CDDA 99%
  Signature: 6DBD7A3318C152AE867355C9751D4E1CBFA2FEFF
FILE: 01 - Thuja Magus Imperium.flac
  Size: 78788868 Hash: 244AD644FF9F169E6DBBA3BF403562CC Accuracy: -m0
  Conclusion: CDDA 100%
  Signature: C0C4B59892976B81D97590923CC804B273CAEB9E

Код:
REM DATE 2011
REM DISCID 5C0B7707
REM COMMENT "ExactAudioCopy v1.0b1"
PERFORMER "Wolves In The Throne Room"
TITLE "Celestial Lineage"
FILE "01 - Thuja Magus Imperium.wav" WAVE
  TRACK 01 AUDIO
    TITLE "Thuja Magus Imperium "
    PERFORMER "Wolves In The Throne Room"
    INDEX 01 00:00:00
FILE "02 - Permanent Changes In Consciousness.wav" WAVE
  TRACK 02 AUDIO
    TITLE "Permanent Changes In Consciousness"
    PERFORMER "Wolves In The Throne Room"
    INDEX 01 00:00:00
FILE "03 - Subterranean Initiation.wav" WAVE
  TRACK 03 AUDIO
    TITLE "Subterranean Initiation"
    PERFORMER "Wolves In The Throne Room"
    INDEX 01 00:00:00
FILE "04 - Rainbow Illness.wav" WAVE
  TRACK 04 AUDIO
    TITLE "Rainbow Illness"
    PERFORMER "Wolves In The Throne Room"
    INDEX 01 00:00:00
FILE "05 - Woodland Cathedral.wav" WAVE
  TRACK 05 AUDIO
    TITLE "Woodland Cathedral"
    PERFORMER "Wolves In The Throne Room"
    INDEX 01 00:00:00
FILE "06 - Astral Blood.wav" WAVE
  TRACK 06 AUDIO
    TITLE "Astral Blood"
    PERFORMER "Wolves In The Throne Room"
    INDEX 01 00:00:00
FILE "07 - Prayer Of Transformation.wav" WAVE
  TRACK 07 AUDIO
    TITLE "Prayer Of Transformation"
    PERFORMER "Wolves In The Throne Room"
    INDEX 01 00:00:00
Wolves in the Throne Room — американская блэк-метал группа, которую образовали в 2003 году братья Аарон и Натан Уивер. На данный момент WITTR считаются одной из самых оригинальных групп на американской блэк-метал сцене, положившей начало «Cascadian black metal»-сцене (объединяющей в основном американские и канадские группы из региона Каскадных гор). В отличие от многих андеграундных блэк-метал групп, Wolves in the Throne Room играют достаточно сложную по структуре музыку с сильной примесью дарк-эмбиента, а также с элементами фолк-метала, дум-метала и даже краст-панка. Впоследствии подобное звучание стало характерным и для многих других групп из того же региона (Skagos, L’Acephale, Alda).

Состав:
Nathan Weaver - гитара, вокал
Aaron Weaver - ударные, бас, гитара

Оф. сайт группы
Время раздачи: Обычно с 19:00 до 00:00 :спит:
[NNM-Club.ru]_Wolves In The Throne Room - Celestial Lineage (2011) FLAC.torrent
 Торрент: Золотая раздача  Зарегистрирован
 
Зарегистрируйтесь и скачайте торрент!
13.3 KB

 Зарегистрирован:   14 Сен 2011 14:56:09
 Размер:   313 MB  (
 Рейтинг:    (Голосов: 8)
 Поблагодарили:   13
 Проверка:   Оформление проверено модератором 14 Сен 2011 21:24:42
Как cкачать  ·  Как раздать  ·  Правильно оформить  ·  Поднять ратио!  

_________________
Внимание! Временно отсутствую на своих раздачах. Просьба понять и простить.
Shuran80 ®
Свободный релизер
 
Стаж: 12 лет 6 мес.
Сообщений: 3348
Ratio: 1102.109
Раздал: 87.06 TB
Поблагодарили: 192286
100%
Откуда: Ленинград
ussr.gif
Wolves In The Throne Room - Celestial Lineage (2011)
Год: 2011
Жанр: Atmospheric Black Metal
Страна: США
Продолжительность: 00:48:55

Издатель: Southern Lord
Номер по каталогу: LORD142
Кодек: FLAC (tracks+.cue)
Битрейт: Lossless

Трек лист:
01. Thuja Magus Imperium (11:42)
02. Permanent Changes In Consciousness (1:55)
03. Subterranean Initiation (7:10)
04. Rainbow Illness (1:28)
05. Woodland Cathedral (5:26)
06. Astral Blood (10:16)
07. Prayer Of Transformation (10:58)
Код:

Exact Audio Copy V1.0 beta 1 from 15. November 2010

EAC extraction logfile from 7. September 2011, 2:59

Wolves In The Throne Room / Celestial Lineage

Used drive  : HL-DT-STDVDRAM GU10N   Adapter: 0  ID: 1

Read mode               : Secure
Utilize accurate stream : Yes
Defeat audio cache      : Yes
Make use of C2 pointers : No

Read offset correction                      : 667
Overread into Lead-In and Lead-Out          : No
Fill up missing offset samples with silence : Yes
Delete leading and trailing silent blocks   : No
Null samples used in CRC calculations       : Yes
Used interface                              : Native Win32 interface for Win NT & 2000
Gap handling                                : Appended to previous track

Used output format              : User Defined Encoder
Selected bitrate                : 320 kBit/s
Quality                         : High
Add ID3 tag                     : No
Command line compressor         : C:\Program Files\Exact Audio Copy\Flac\flac.exe
Additional command line options : -V -8 -T "artist=%a" -T "title=%t" -T "album=%g" -T "date=%y" -T "tracknumber=%n" -T "genre=%m" %s

TOC of the extracted CD

     Track |   Start  |  Length  | Start sector | End sector
    ---------------------------------------------------------
        1  |  0:00.00 | 11:41.70 |         0    |    52644
        2  | 11:41.70 |  1:54.58 |     52645    |    61252
        3  | 13:36.53 |  7:09.55 |     61253    |    93482
        4  | 20:46.33 |  1:28.17 |     93483    |   100099
        5  | 22:14.50 |  5:26.23 |    100100    |   124572
        6  | 27:40.73 | 10:16.32 |    124573    |   170804
        7  | 37:57.30 | 10:57.55 |    170805    |   220134

Track  1

     Filename E:\Wolves In The Throne Room - 2011 - Celestial Lineage\01 - Thuja Magus Imperium.wav

     Pre-gap length  0:00:02.00

     Peak level 99.3 %
     Extraction speed 1.3 X
     Track quality 100.0 %
     Test CRC 5B6420F0
     Copy CRC 5B6420F0
     Track not present in AccurateRip database
     Copy OK

Track  2

     Filename E:\Wolves In The Throne Room - 2011 - Celestial Lineage\02 - Permanent Changes In Consciousness.wav

     Peak level 87.2 %
     Extraction speed 1.1 X
     Track quality 100.0 %
     Test CRC F328F8D3
     Copy CRC F328F8D3
     Track not present in AccurateRip database
     Copy OK

Track  3

     Filename E:\Wolves In The Throne Room - 2011 - Celestial Lineage\03 - Subterranean Initiation.wav

     Peak level 100.0 %
     Extraction speed 1.6 X
     Track quality 100.0 %
     Test CRC 219F16BD
     Copy CRC 219F16BD
     Track not present in AccurateRip database
     Copy OK

Track  4

     Filename E:\Wolves In The Throne Room - 2011 - Celestial Lineage\04 - Rainbow Illness.wav

     Peak level 70.1 %
     Extraction speed 1.3 X
     Track quality 100.0 %
     Test CRC 0AA20D5C
     Copy CRC 0AA20D5C
     Track not present in AccurateRip database
     Copy OK

Track  5

     Filename E:\Wolves In The Throne Room - 2011 - Celestial Lineage\05 - Woodland Cathedral.wav

     Peak level 99.1 %
     Extraction speed 1.8 X
     Track quality 100.0 %
     Test CRC 1A7E11D3
     Copy CRC 1A7E11D3
     Track not present in AccurateRip database
     Copy OK

Track  6

     Filename E:\Wolves In The Throne Room - 2011 - Celestial Lineage\06 - Astral Blood.wav

     Peak level 99.7 %
     Extraction speed 2.1 X
     Track quality 100.0 %
     Test CRC 41D7A9DC
     Copy CRC 41D7A9DC
     Track not present in AccurateRip database
     Copy OK

Track  7

     Filename E:\Wolves In The Throne Room - 2011 - Celestial Lineage\07 - Prayer Of Transformation.wav

     Peak level 100.0 %
     Extraction speed 2.3 X
     Track quality 100.0 %
     Test CRC 100FE368
     Copy CRC 100FE368
     Track not present in AccurateRip database
     Copy OK

None of the tracks are present in the AccurateRip database

No errors occurred

End of status report

==== Log checksum E5C829128C318347B8E8BA1415A4CCC1E6AEA123C67D68770EF2A00A9DB33835 ====
Код:

-----------------------

DON'T MODIFY THIS FILE

-----------------------

PERFORMER: auCDtect Task Manager, ver. 1.5.1RC4 build 1.5.1.5
Copyright (c) 2008-2010 y-soft. All rights reserved
http://y-soft.org

ANALYZER: auCDtect: CD records authenticity detector, version 0.8.2
Copyright (c) 2004 Oleg Berngardt. All rights reserved.
Copyright (c) 2004 Alexander Djourik. All rights reserved.

FILE: 07 - Prayer Of Transformation.flac
  Size: 71483595 Hash: 12E12ABE65C89A6DE85CC195DCBE86CF Accuracy: -m0
  Conclusion: CDDA 100%
  Signature: 67173CB307C7B27C367A9ED54BF2B785DD1FC638
FILE: 06 - Astral Blood.flac
  Size: 70754511 Hash: 92AD38B6ACC456392873AB628C6545C0 Accuracy: -m0
  Conclusion: CDDA 100%
  Signature: 6F189C3BA1485C8488A205F02E38D4E1887123D8
FILE: 05 - Woodland Cathedral.flac
  Size: 36101311 Hash: BDEC6A271EBB60A76DC584C24CC94047 Accuracy: -m0
  Conclusion: CDDA 100%
  Signature: B8FC9D9ED1AE092FD0C0D7392C872E077897EEC6
FILE: 04 - Rainbow Illness.flac
  Size: 8967046 Hash: FC427270593FE0016B171D89CE58A5C8 Accuracy: -m0
  Conclusion: CDDA 100%
  Signature: 9A5B405C46D3F06D937590CE6FEDEAF56D98DF8A
FILE: 03 - Subterranean Initiation.flac
  Size: 52124855 Hash: CF59B461F8D0EFAFA0D08FE1E2326308 Accuracy: -m0
  Conclusion: CDDA 100%
  Signature: 6770F04785653E9ABF5E046446DF818135DA8579
FILE: 02 - Permanent Changes In Consciousness.flac
  Size: 9138537 Hash: 657828215311EE717D91F5FB6652C98C Accuracy: -m0
  Conclusion: CDDA 99%
  Signature: 6DBD7A3318C152AE867355C9751D4E1CBFA2FEFF
FILE: 01 - Thuja Magus Imperium.flac
  Size: 78788868 Hash: 244AD644FF9F169E6DBBA3BF403562CC Accuracy: -m0
  Conclusion: CDDA 100%
  Signature: C0C4B59892976B81D97590923CC804B273CAEB9E

Код:
REM DATE 2011
REM DISCID 5C0B7707
REM COMMENT "ExactAudioCopy v1.0b1"
PERFORMER "Wolves In The Throne Room"
TITLE "Celestial Lineage"
FILE "01 - Thuja Magus Imperium.wav" WAVE
  TRACK 01 AUDIO
    TITLE "Thuja Magus Imperium "
    PERFORMER "Wolves In The Throne Room"
    INDEX 01 00:00:00
FILE "02 - Permanent Changes In Consciousness.wav" WAVE
  TRACK 02 AUDIO
    TITLE "Permanent Changes In Consciousness"
    PERFORMER "Wolves In The Throne Room"
    INDEX 01 00:00:00
FILE "03 - Subterranean Initiation.wav" WAVE
  TRACK 03 AUDIO
    TITLE "Subterranean Initiation"
    PERFORMER "Wolves In The Throne Room"
    INDEX 01 00:00:00
FILE "04 - Rainbow Illness.wav" WAVE
  TRACK 04 AUDIO
    TITLE "Rainbow Illness"
    PERFORMER "Wolves In The Throne Room"
    INDEX 01 00:00:00
FILE "05 - Woodland Cathedral.wav" WAVE
  TRACK 05 AUDIO
    TITLE "Woodland Cathedral"
    PERFORMER "Wolves In The Throne Room"
    INDEX 01 00:00:00
FILE "06 - Astral Blood.wav" WAVE
  TRACK 06 AUDIO
    TITLE "Astral Blood"
    PERFORMER "Wolves In The Throne Room"
    INDEX 01 00:00:00
FILE "07 - Prayer Of Transformation.wav" WAVE
  TRACK 07 AUDIO
    TITLE "Prayer Of Transformation"
    PERFORMER "Wolves In The Throne Room"
    INDEX 01 00:00:00
Wolves in the Throne Room — американская блэк-метал группа, которую образовали в 2003 году братья Аарон и Натан Уивер. На данный момент WITTR считаются одной из самых оригинальных групп на американской блэк-метал сцене, положившей начало «Cascadian black metal»-сцене (объединяющей в основном американские и канадские группы из региона Каскадных гор). В отличие от многих андеграундных блэк-метал групп, Wolves in the Throne Room играют достаточно сложную по структуре музыку с сильной примесью дарк-эмбиента, а также с элементами фолк-метала, дум-метала и даже краст-панка. Впоследствии подобное звучание стало характерным и для многих других групп из того же региона (Skagos, L’Acephale, Alda).

Состав:
Nathan Weaver - гитара, вокал
Aaron Weaver - ударные, бас, гитара

Оф. сайт группы
Время раздачи: Обычно с 19:00 до 00:00 :спит:
Код:
[align=center][color=indigo][size=20][b]Wolves In The Throne Room - Celestial Lineage (2011)[/b][/size][/color][/align][hr]
[poster=right]http://i.imgur.com/2Xf8BkW.jpg[/poster]

[b]Год:[/b] 2011
[b]Жанр:[/b] Atmospheric Black Metal
[b]Страна:[/b] США
[b]Продолжительность:[/b] 00:48:55

[b]Издатель:[/b] Southern Lord
[b]Номер по каталогу:[/b] LORD142
[b]Кодек:[/b] FLAC (tracks+.cue)
[b]Битрейт:[/b] Lossless

[b]Трек лист:[/b]
[font="Tahoma"][color=grey]01.[/color] Thuja Magus Imperium  [color=grey](11:42)[/color][/font]
[font="Tahoma"][color=grey]02.[/color] Permanent Changes In Consciousness [color=grey](1:55)[/color][/font]
[font="Tahoma"][color=grey]03.[/color] Subterranean Initiation [color=grey](7:10)[/color][/font]
[font="Tahoma"][color=grey]04.[/color] Rainbow Illness [color=grey](1:28)[/color][/font]
[font="Tahoma"][color=grey]05.[/color] Woodland Cathedral [color=grey](5:26)[/color][/font]
[font="Tahoma"][color=grey]06.[/color] Astral Blood [color=grey](10:16)[/color][/font]
[font="Tahoma"][color=grey]07.[/color] Prayer Of Transformation [color=grey](10:58)[/color][/font]
[hide=Отчёт ЕАС:][code]
Exact Audio Copy V1.0 beta 1 from 15. November 2010

EAC extraction logfile from 7. September 2011, 2:59

Wolves In The Throne Room / Celestial Lineage

Used drive  : HL-DT-STDVDRAM GU10N   Adapter: 0  ID: 1

Read mode               : Secure
Utilize accurate stream : Yes
Defeat audio cache      : Yes
Make use of C2 pointers : No

Read offset correction                      : 667
Overread into Lead-In and Lead-Out          : No
Fill up missing offset samples with silence : Yes
Delete leading and trailing silent blocks   : No
Null samples used in CRC calculations       : Yes
Used interface                              : Native Win32 interface for Win NT & 2000
Gap handling                                : Appended to previous track

Used output format              : User Defined Encoder
Selected bitrate                : 320 kBit/s
Quality                         : High
Add ID3 tag                     : No
Command line compressor         : C:\Program Files\Exact Audio Copy\Flac\flac.exe
Additional command line options : -V -8 -T "artist=%a" -T "title=%t" -T "album=%g" -T "date=%y" -T "tracknumber=%n" -T "genre=%m" %s

TOC of the extracted CD

     Track |   Start  |  Length  | Start sector | End sector
    ---------------------------------------------------------
        1  |  0:00.00 | 11:41.70 |         0    |    52644
        2  | 11:41.70 |  1:54.58 |     52645    |    61252
        3  | 13:36.53 |  7:09.55 |     61253    |    93482
        4  | 20:46.33 |  1:28.17 |     93483    |   100099
        5  | 22:14.50 |  5:26.23 |    100100    |   124572
        6  | 27:40.73 | 10:16.32 |    124573    |   170804
        7  | 37:57.30 | 10:57.55 |    170805    |   220134

Track  1

     Filename E:\Wolves In The Throne Room - 2011 - Celestial Lineage\01 - Thuja Magus Imperium.wav

     Pre-gap length  0:00:02.00

     Peak level 99.3 %
     Extraction speed 1.3 X
     Track quality 100.0 %
     Test CRC 5B6420F0
     Copy CRC 5B6420F0
     Track not present in AccurateRip database
     Copy OK

Track  2

     Filename E:\Wolves In The Throne Room - 2011 - Celestial Lineage\02 - Permanent Changes In Consciousness.wav

     Peak level 87.2 %
     Extraction speed 1.1 X
     Track quality 100.0 %
     Test CRC F328F8D3
     Copy CRC F328F8D3
     Track not present in AccurateRip database
     Copy OK

Track  3

     Filename E:\Wolves In The Throne Room - 2011 - Celestial Lineage\03 - Subterranean Initiation.wav

     Peak level 100.0 %
     Extraction speed 1.6 X
     Track quality 100.0 %
     Test CRC 219F16BD
     Copy CRC 219F16BD
     Track not present in AccurateRip database
     Copy OK

Track  4

     Filename E:\Wolves In The Throne Room - 2011 - Celestial Lineage\04 - Rainbow Illness.wav

     Peak level 70.1 %
     Extraction speed 1.3 X
     Track quality 100.0 %
     Test CRC 0AA20D5C
     Copy CRC 0AA20D5C
     Track not present in AccurateRip database
     Copy OK

Track  5

     Filename E:\Wolves In The Throne Room - 2011 - Celestial Lineage\05 - Woodland Cathedral.wav

     Peak level 99.1 %
     Extraction speed 1.8 X
     Track quality 100.0 %
     Test CRC 1A7E11D3
     Copy CRC 1A7E11D3
     Track not present in AccurateRip database
     Copy OK

Track  6

     Filename E:\Wolves In The Throne Room - 2011 - Celestial Lineage\06 - Astral Blood.wav

     Peak level 99.7 %
     Extraction speed 2.1 X
     Track quality 100.0 %
     Test CRC 41D7A9DC
     Copy CRC 41D7A9DC
     Track not present in AccurateRip database
     Copy OK

Track  7

     Filename E:\Wolves In The Throne Room - 2011 - Celestial Lineage\07 - Prayer Of Transformation.wav

     Peak level 100.0 %
     Extraction speed 2.3 X
     Track quality 100.0 %
     Test CRC 100FE368
     Copy CRC 100FE368
     Track not present in AccurateRip database
     Copy OK

None of the tracks are present in the AccurateRip database

No errors occurred

End of status report

==== Log checksum E5C829128C318347B8E8BA1415A4CCC1E6AEA123C67D68770EF2A00A9DB33835 ====
[/code][/hide][hide=Отчёт auCDtect Task manager:][code]
-----------------------

DON'T MODIFY THIS FILE

-----------------------

PERFORMER: auCDtect Task Manager, ver. 1.5.1RC4 build 1.5.1.5
Copyright (c) 2008-2010 y-soft. All rights reserved
http://y-soft.org

ANALYZER: auCDtect: CD records authenticity detector, version 0.8.2
Copyright (c) 2004 Oleg Berngardt. All rights reserved.
Copyright (c) 2004 Alexander Djourik. All rights reserved.

FILE: 07 - Prayer Of Transformation.flac
  Size: 71483595 Hash: 12E12ABE65C89A6DE85CC195DCBE86CF Accuracy: -m0
  Conclusion: CDDA 100%
  Signature: 67173CB307C7B27C367A9ED54BF2B785DD1FC638
FILE: 06 - Astral Blood.flac
  Size: 70754511 Hash: 92AD38B6ACC456392873AB628C6545C0 Accuracy: -m0
  Conclusion: CDDA 100%
  Signature: 6F189C3BA1485C8488A205F02E38D4E1887123D8
FILE: 05 - Woodland Cathedral.flac
  Size: 36101311 Hash: BDEC6A271EBB60A76DC584C24CC94047 Accuracy: -m0
  Conclusion: CDDA 100%
  Signature: B8FC9D9ED1AE092FD0C0D7392C872E077897EEC6
FILE: 04 - Rainbow Illness.flac
  Size: 8967046 Hash: FC427270593FE0016B171D89CE58A5C8 Accuracy: -m0
  Conclusion: CDDA 100%
  Signature: 9A5B405C46D3F06D937590CE6FEDEAF56D98DF8A
FILE: 03 - Subterranean Initiation.flac
  Size: 52124855 Hash: CF59B461F8D0EFAFA0D08FE1E2326308 Accuracy: -m0
  Conclusion: CDDA 100%
  Signature: 6770F04785653E9ABF5E046446DF818135DA8579
FILE: 02 - Permanent Changes In Consciousness.flac
  Size: 9138537 Hash: 657828215311EE717D91F5FB6652C98C Accuracy: -m0
  Conclusion: CDDA 99%
  Signature: 6DBD7A3318C152AE867355C9751D4E1CBFA2FEFF
FILE: 01 - Thuja Magus Imperium.flac
  Size: 78788868 Hash: 244AD644FF9F169E6DBBA3BF403562CC Accuracy: -m0
  Conclusion: CDDA 100%
  Signature: C0C4B59892976B81D97590923CC804B273CAEB9E

[/code][/hide]
[hide=Содержимое Cue:][code]REM DATE 2011
REM DISCID 5C0B7707
REM COMMENT "ExactAudioCopy v1.0b1"
PERFORMER "Wolves In The Throne Room"
TITLE "Celestial Lineage"
FILE "01 - Thuja Magus Imperium.wav" WAVE
  TRACK 01 AUDIO
    TITLE "Thuja Magus Imperium "
    PERFORMER "Wolves In The Throne Room"
    INDEX 01 00:00:00
FILE "02 - Permanent Changes In Consciousness.wav" WAVE
  TRACK 02 AUDIO
    TITLE "Permanent Changes In Consciousness"
    PERFORMER "Wolves In The Throne Room"
    INDEX 01 00:00:00
FILE "03 - Subterranean Initiation.wav" WAVE
  TRACK 03 AUDIO
    TITLE "Subterranean Initiation"
    PERFORMER "Wolves In The Throne Room"
    INDEX 01 00:00:00
FILE "04 - Rainbow Illness.wav" WAVE
  TRACK 04 AUDIO
    TITLE "Rainbow Illness"
    PERFORMER "Wolves In The Throne Room"
    INDEX 01 00:00:00
FILE "05 - Woodland Cathedral.wav" WAVE
  TRACK 05 AUDIO
    TITLE "Woodland Cathedral"
    PERFORMER "Wolves In The Throne Room"
    INDEX 01 00:00:00
FILE "06 - Astral Blood.wav" WAVE
  TRACK 06 AUDIO
    TITLE "Astral Blood"
    PERFORMER "Wolves In The Throne Room"
    INDEX 01 00:00:00
FILE "07 - Prayer Of Transformation.wav" WAVE
  TRACK 07 AUDIO
    TITLE "Prayer Of Transformation"
    PERFORMER "Wolves In The Throne Room"
    INDEX 01 00:00:00
[/code][/hide]
[hide=Дополнительная информация:]
[b]Wolves in the Throne Room[/b] — американская блэк-метал группа, которую образовали в 2003 году братья Аарон и Натан Уивер. На данный момент WITTR считаются одной из самых оригинальных групп на американской блэк-метал сцене, положившей начало «Cascadian black metal»-сцене (объединяющей в основном американские и канадские группы из региона Каскадных гор). В отличие от многих андеграундных блэк-метал групп, Wolves in the Throne Room играют достаточно сложную по структуре музыку с сильной примесью дарк-эмбиента, а также с элементами фолк-метала, дум-метала и даже краст-панка. Впоследствии подобное звучание стало характерным и для многих других групп из того же региона (Skagos, L’Acephale, Alda).

[b]Состав:[/b]
Nathan Weaver - гитара, вокал
Aaron Weaver - ударные, бас, гитара

[url=http://www.wittr.com/]Оф. сайт группы[/url]
[/hide]
[align=center][b]Время раздачи:[/b] Обычно с 19:00 до 00:00 :sleep2:[/align]

_________________
Внимание! Временно отсутствую на своих раздачах. Просьба понять и простить.
Топик был перенесен из форума Metal (Lossless) в форум Архив Музыки

Причина переноса: Длительное отсутствие сида на протяжении более 6 месяцев.

Исправил релиз - напиши ЛС chaosman1986, дав ссылку на релиз.
Если нет ответа 24 часа - нажми на кнопку "Обратить внимание модераторов".
Показать сообщения:   
Начать новую тему   Ответить на тему    Торрент-трекер NNM-Club -> Архив торрентов -> Архив Музыки Часовой пояс: GMT + 3
Страница 1 из 1