Классический форум-трекер
canvas not supported
Нас вместе: 4 211 002

Легенда о сэре Гавейне и зеленом рыцаре / Sword of the Valiant: The Legend of Sir Gawain and the Green Knight (1984) DVDRip


 
 
RSS
Начать новую тему   Ответить на тему    Торрент-трекер NNM-Club -> Архив торрентов -> Архив Видео
Автор Сообщение
Strelok@46 ®
Стаж: 11 лет 5 мес.
Сообщений: 451
Ratio: 122.996
Раздал: 6.727 TB
Поблагодарили: 35129
100%
Откуда: Курская обл.
russia.gif
Легенда о сэре Гавейне и зеленом рыцаре / Sword of the Valiant: The Legend of Sir Gawain and the Green Knight (1984) DVDRip
Русское название: Легенда о сэре Гавейне и зеленом рыцаре
Оригинальное название: Sword of the Valiant: The Legend of Sir Gawain and the Green Knight
Год выпуска: 1984
Страна: Великобритания
Жанр: фэнтези, боевик, мелодрама, приключения
Перевод: Профессиональный многоголосый (Закадровый)


Дата мировой премьеры: 9 июня 1984
Режиссер: Стефен Викс
Сценарий: Филип М. Брин, Тереза Бёрдон, Ховард С. Пенн, ...
Продюсеры: Филип М. Брин, Йорам Глобус, Менахем Голан, ...
Композитор: Рон Гисин
Актеры: Томас Хиткот, Майлз О’Киффи, Ли Лоусон, Тревор Ховард, Шон Коннери, Эмма Саттон, Дуглас Уилмер, Сирил Клер, Лиля Кедрова, Джон Серрет
Описание фильма:
Во дворец короля Артура является загадочный Зеленый Рыцарь. Говоря рифмами и загадками, он подстрекает людей на безрассудства. И когда один из рыцарей, молодой сэр Гавейн, пытается защитить честь короля, то обнаруживает, что он всего лишь пешка в игре призрачного рыцаря. Игре, которая уведет его далеко от Камелота и заберет его жизнь, если он не сможет решить загадки своего противника.
Продолжительность: 01:42:11
Качество видео: DVDRip
Видеокодек: XviD
Битрейт видео: ~1715kb/s
Размер кадра: 704x528
Аудиокодек: AC-3 (2канала)
Битрейт аудио: 192kb/s
Общее
Полное имя : D:\Мои видеозаписи\Фильмачки\NNM-Club\[NNM-Club]Legenda.o.sere.Gaveine.i.zelenom.rycare.1984.XviD.DVD.avi
Формат : AVI
Формат/Информация : Audio Video Interleave
Размер файла : 1,37 Гбайт
Продолжительность : 1 ч. 42 м.
Общий поток : 1916 Кбит/сек
Программа кодирования : VirtualDubMod 1.5.10.2 (build 2540/release)
Библиотека кодирования : VirtualDubMod build 2540/release

Видео
Идентификатор : 0
Формат : MPEG-4 Visual
Профиль формата : Advanced Simple@L5
Параметр BVOP формата : 1
Параметр QPel формата : Нет
Параметр GMC формата : Без точки перехода
Параметр матрицы формата : Default (MPEG)
Идентификатор кодека : XVID
Идентификатор кодека/Подсказка : XviD
Продолжительность : 1 ч. 42 м.
Битрейт : 1715 Кбит/сек
Ширина : 704 пикс.
Высота : 528 пикс.
Соотношение сторон : 4:3
Частота кадров : 23,976 кадр/сек
Цветовое пространство : YUV
Подвыборка цветности : 4:2:0
Битовая глубина : 8 бит
Тип развёртки : Прогрессивная
Метод сжатия : С потерями
Бит/(Пиксели*Кадры) : 0.192
Размер потока : 1,22 Гбайт (89%)
Библиотека кодирования : XviD 1.2.1 (UTC 2008-12-04)

Аудио
Идентификатор : 1
Формат : AC-3
Формат/Информация : Audio Coding 3
Профиль формата : Dolby Digital
Расширение режима : CM (complete main)
Идентификатор кодека : 2000
Продолжительность : 1 ч. 42 м.
Вид битрейта : Постоянный
Битрейт : 192 Кбит/сек
Каналы : 2 канала
Расположение каналов : Front: L R
Частота : 48,0 КГц
Битовая глубина : 16 бит
Метод сжатия : С потерями
Размер потока : 140 Мбайт (10%)
Выравнивание : Разделение по промежуткам
Продолжительность промежутка : 42 мс. (1,00 видеокадр)
Время предзагрузки промежутка : 500 ms
Скриншоты:




Время раздачи: С 16:00 по 8:00
Не забывайте говорить , это лучшая награда для релизера :подмигивание:


 Торрент: Платиновая раздача  Зарегистрирован
 
Скачать


Примагнититься
 Зарегистрирован:   15 Сен 2011 12:30:43
 Размер:   1.37 GB  (
 Рейтинг:   4.1 (Голосов: 11)
 Поблагодарили:   52
 Проверка:   Оформление проверено модератором 16 Сен 2011 16:28:58
Как cкачать  ·  Как раздать  ·  Правильно оформить  ·  Поднять ратио!  
otof
Стаж: 12 лет 1 мес.
Сообщений: 5
Ratio: 2.103
19.35%
russia.gif
спасибо!
jofrei53
Стаж: 11 лет 10 мес.
Сообщений: 575
Ratio: 10.881
Раздал: 8.124 TB
100%
Откуда: Беер-Шева​,Израиль​
israel.gif
Спасибо.А скорость "бувает?" :злость: :мегашок: :убится ап стену:
Топик был перенесен из форума Зарубежные Фильмы (HD*Rip/LQ, DVDRip, SATRip, VHSRip) в форум Архив Видео

Причина переноса: сида не было более месяца.
Alex_shadow
Показать сообщения:   
Начать новую тему   Ответить на тему    Торрент-трекер NNM-Club -> Архив торрентов -> Архив Видео Часовой пояс: GMT + 3
Страница 1 из 1