Классический форум-трекер
canvas not supported
Нас вместе: 4 172 746

Не говори ни слова / Don't Say a Word (2001) BDRip


 
 
RSS
Начать новую тему   Ответить на тему    Торрент-трекер NNM-Club -> Зарубежное кино -> Зарубежные Фильмы (SD)
Автор Сообщение
Dobrenko ®
Стаж: 13 лет 2 мес.
Сообщений: 6503
Ratio: 28.506
Поблагодарили: 750305
100%
Откуда: Одесса-Москва
Не говори ни слова / Don't Say a Word
Русское название: Не говори ни слова
Оригинальное название: Don't Say a Word
Год выпуска: 2001
Жанр: Триллер, Драма, Криминал
Описание фильма:
«Вы хотите того же, что они?... Я никогда не скажу... никому из вас» - вот первые слова Элизабет, обращенные к знаменитому психиатру Натану Конраду. Элизабет, замкнутая в себе девушка, страдающая припадками немотивированной агрессии, причину которой никто до сих пор не смог объяснить и, тем более, устранить. В Натане просыпается профессиональный интерес и он принимается за лечение, но проходит совсем немного времени, и он узнает, что Элизабет и ее болезнь каким-то таинственным образом связаны с опасностью, грозящей ему и его семье. Дочь психиатра похищают самым бесцеремонным образом, а за ним и его женой устанавливают круглосуточное наблюдение. Чтобы спасти дочь, Натану необходимо расшифровать шестизначный код, спрятанный в затуманенном сознании его пациентки.
Режиссер: Гари Фледер
Актеры: Майкл Дуглас, Шон Бин, Бриттани Мерфи, Фамке Янссен , Оливер Плэтт, Скай МакКоул Бартусяк, Гай Торри, Дженнифер Эспозито, Шоун Дойл..
Качество видео: BDRip (источник: Blu-ray CEE / 1080p)
Продолжительность: 01:53:35
Перевод: Дублированный / Оригинальный (английский)
Субтитры: Русские, Английские (отдельно)

Видео: XviD build 64, 720x304 (2.37:1), 1838 kbps avg, 0.35 bit/pix
Аудио 1: AC3 Dolby Digital, 3/2 (L,C,R,l,r)+LFE ch, 448 kbps | DUB
Аудио 2: AC3 Dolby Digital, 3/2 (L,C,R,l,r)+LFE ch, 448 kbps | Orig

Общее
Полное имя : C:\ZIM\Torrents\Say\Ne_govori_ni_slova_BDRip\Ne.govori.ni.slova.2001.BDRip.avi
Формат : AVI
Формат/Информация : Audio Video Interleave
Профиль формата : OpenDML
Размер файла : 2,18 Гбайт
Продолжительность : 1 ч. 53 м.
Общий поток : 2752 Кбит/сек
Название фильма : Не говори ни слова / Don't Say a Word(2001) BDRip
Режиссёр : KalliostroV
Программа кодирования : VirtualDubModRus 1.5.10.2 (build 2542/release)
Правообладатель : hqclub

Видео
Идентификатор : 0
Формат : MPEG-4 Visual
Профиль формата : Advanced Simple@L5
Параметр BVOP формата : 1
Параметр QPel формата : Нет
Параметр GMC формата : Без точки перехода
Параметр матрицы формата : Выборочная
Идентификатор кодека : XVID
Идентификатор кодека/Подсказка : XviD
Продолжительность : 1 ч. 53 м.
Битрейт : 1838 Кбит/сек
Ширина : 720 пикселей
Высота : 304 пикселя
Соотношение сторон : 2,35:1
Частота кадров : 23,976 кадра/сек
Цветовое пространство : YUV
Субдискретизация насыщенности : 4:2:0
Битовая глубина : 8 бит
Тип развёртки : Прогрессивная
Метод сжатия : С потерями
Бит/(Пиксели*Кадры) : 0.350
Размер потока : 1,46 Гбайт (67%)
Библиотека кодирования : XviD 64

Аудио #1
Идентификатор : 1
Формат : AC-3
Формат/Информация : Audio Coding 3
Расширение режима : CM (complete main)
Идентификатор кодека : 2000
Продолжительность : 1 ч. 53 м.
Вид битрейта : Постоянный
Битрейт : 448 Кбит/сек
Каналы : 6 каналов
Расположение каналов : Front: L C R, Side: L R, LFE
Частота : 48,0 КГц
Битовая глубина : 16 бит
Метод сжатия : С потерями
Размер потока : 364 Мбайт (16%)
Выравнивание : Разделение по промежуткам
Продолжительность промежутка : 42 мс. (1,00 видеокадр)
Время предзагрузки промежутка : 500 мс.

Аудио #2
Идентификатор : 2
Формат : AC-3
Формат/Информация : Audio Coding 3
Расширение режима : CM (complete main)
Идентификатор кодека : 2000
Продолжительность : 1 ч. 53 м.
Вид битрейта : Постоянный
Битрейт : 448 Кбит/сек
Каналы : 6 каналов
Расположение каналов : Front: L C R, Side: L R, LFE
Частота : 48,0 КГц
Битовая глубина : 16 бит
Метод сжатия : С потерями
Размер потока : 364 Мбайт (16%)
Выравнивание : Разделение по промежуткам
Продолжительность промежутка : 42 мс. (1,00 видеокадр)
Время предзагрузки промежутка : 500 мс.





Время раздачи: с 11.00 до 06.00 мск.
[NNM-Club.ru]_Ne_govori_ni_slova_BDRip.torrent
 Торрент: Платиновая раздача  Зарегистрирован
 
Скачать


Примагнититься
 Зарегистрирован:   27 Сен 2011 23:10:17
 Размер:   2.18 GB  (
 Рейтинг:   4.8 (Голосов: 18)
 Поблагодарили:   91
 Проверка:   Оформление проверено модератором 28 Сен 2011 18:30:42
Как cкачать  ·  Как раздать  ·  Правильно оформить  ·  Поднять ратио!  
лиии
Стаж: 12 лет 1 мес.
Сообщений: 66
Ratio: 1.18
100%
russia.gif
глянем.
nicwinx
Стаж: 12 лет 3 мес.
Сообщений: 173
Ratio: 103.023
Раздал: 370.5 TB
100%
Откуда: Пенза
russia.gif
понравилось. спасибо.
arkasha50
Стаж: 10 лет 8 мес.
Сообщений: 186
Ratio: 8.35
100%
Откуда: Gorlovka city
ussr.gif
Почти два часа хорошего зрелища. У фильма нет никаких слабых мест. Получите "десятку".
Показать сообщения:   
Начать новую тему   Ответить на тему    Торрент-трекер NNM-Club -> Зарубежное кино -> Зарубежные Фильмы (SD) Часовой пояс: GMT + 3
Страница 1 из 1