Классический форум-трекер
canvas not supported
Нас вместе: 4 166 515

Эротический массаж (2006) DVDRip


Страницы:   Пред.  1, 2 
 
RSS
Начать новую тему   Ответить на тему    Торрент-трекер NNM-Club -> Обучающие видеоматериалы -> Другие видеокурсы
Автор Сообщение
Kyzmich ®
Стаж: 14 лет 3 мес.
Сообщений: 25
Ratio: 1.876
Поблагодарили: 1294
20.45%
Откуда: Ниж.Новгород
russia.gif
Эротический массаж (2006) DVDRip
Производство: Россия / Видеогурман
Жанр: Информационная эротика, обучающее видео

Описание:
Захватывающий путеводитель в мир великого таинства любви поможет вам по-новому взглянуть на огромные возможности, которые таит в себе любовь, научит мастерству полного погружения в океан нежности и ласки. В атмосфере тишины и покоя вы и ваш партнер сможете насладиться плодами самого изысканного сексуального удовольствия. Обучающее видео для тех, кто хочет доставить друг другу больше удовольствия. Для большинства людей во всем мире массаж - это средство получить удовольствие, расслабиться и получить новые необычные ощущения. Основанный на естественном желании человека ласкать тело любимого и доставлять ему удовольствие, эротический массаж представляет собой дорогу, ведущую в новый мир неведомых ранее эротических наслаждений. Массаж служит связующим звеном между сексом и настоящей близостью. Эротический массаж может стать одним из путей познания друга, а для кого-то оказаться эффективным способом поиска новых ощущений, гораздо более разнообразных и чувственных, чем можно было предположить ранее. Если Вы слишком устали или подавлены, чтобы наслаждаться сексом, эротический массаж поможет Вам расслабиться и, не напрягаясь, испытать массу новых, прекрасных, чувственных переживаний. Эротический массаж может действовать и расслабляюще, и тонизирующе. Однако спать Вам не придется ни при каких обстоятельствах: по мере расслабления утомленных мышц, чувства Ваши будут обостряться до предела. Чувственные, глубоко проникающие, медленные движения помогут Вашему телу реализовать весь свой эротический потенциал. Заставляя забыть о тревогах и заботах окружающего мира, эротический массаж придаст силы для занятия спокойным неторопливым сексом, приносящим особое наслаждение!

Качество: DVDRip
Продолжительность: 00:57:42
Язык: Русский

Видео: DivX, 720x512, 3254 Kbps
Аудио: MP3, 2 ch, 128 Kbps
General
Complete name : Y:\nnm\Eroticheskij.massaj.2006.DivX.DVDRip.avi
Format : AVI
Format/Info : Audio Video Interleave
File size : 1.37 GiB
Duration : 57 min 41 s
Overall bit rate : 3 389 kb/s
Writing application : FairUse Wizard - http://fairusewizard.com
Writing library : The best and REALLY easy backup tool

Video
ID : 0
Format : MPEG-4 Visual
Format settings : BVOP
Format settings, BVOP : Yes
Format settings, QPel : No
Format settings, GMC : No warppoints
Format settings, Matrix : Default (H.263)
Codec ID : DX50
Codec ID/Hint : DivX 5
Duration : 57 min 41 s
Bit rate : 3 251 kb/s
Nominal bit rate : 4 854 kb/s
Width : 720 pixels
Height : 512 pixels
Display aspect ratio : 1.406
Frame rate : 25.000 FPS
Color space : YUV
Chroma subsampling : 4:2:0
Bit depth : 8 bits
Scan type : Progressive
Compression mode : Lossy
Bits/(Pixel*Frame) : 0.353
Stream size : 1.31 GiB (96%)
Writing library : DivX 6.5.1 (UTC 2007-03)

Audio
ID : 1
Format : MPEG Audio
Format version : Version 1
Format profile : Layer 3
Format settings : Joint stereo / MS Stereo
Codec ID : 55
Codec ID/Hint : MP3
Duration : 57 min 41 s
Bit rate mode : Constant
Bit rate : 128 kb/s
Channel(s) : 2 channels
Sampling rate : 48.0 kHz
Frame rate : 41.667 FPS (1152 SPF)
Compression mode : Lossy
Stream size : 52.8 MiB (4%)
Alignment : Aligned on interleaves
Interleave, duration : 40 ms (1.00 video frame)
Interleave, preload duratio : 504 ms
Writing library : LAME3.97b
Encoding settings : -m j -V 4 -q 2 -lowpass 17 -b 128
Скриншоты:

Все одноименные релизы в Клубе
Eroticheskij.massaj.2006.DivX.DVDRip.avi.torrent
 Торрент: Платиновая раздача  Зарегистрирован
 
Скачать


Примагнититься
 Зарегистрирован:   18 Июл 2021 10:05:32
 Размер:   1.37 GB  (
 Рейтинг:   4.8 (Голосов: 237)
 Поблагодарили:   974
 Проверка:   Оформление проверено модератором 18 Июл 2021 10:06:51
Как cкачать  ·  Как раздать  ·  Правильно оформить  ·  Поднять ратио!  
VoYou87
Стаж: 2 года 3 мес.
Сообщений: 4
Ratio: 0.444
0.76%
russia.gif
А самому учат делать массаж или чтоб кто то ? у меня только кот дома
SquallLeonhart
Стаж: 11 лет 3 мес.
Сообщений: 2680
Ratio: 117.923
Раздал: 51.09 TB
Поблагодарили: 1640
100%
Откуда: Final Fantasy
pirates.png
efgensk писал(а): Перейти к сообщению
Кузьмич нашел на антресолях родительскую кассету и оцифровал?)
:лол: :лол: :лол:

_________________
Не буди лихо... пока оно тихо!
UpNowInvest
Стаж: 6 лет 4 мес.
Сообщений: 82
Ratio: 25.863
Раздал: 19.13 TB
Поблагодарили: 672
8.69%
Откуда: Одесса
ussr.gif
она уснет пока ее так массажить будешь
xxxvladikxxx
Стаж: 9 лет 1 мес.
Сообщений: 95
Ratio: 21.992
Раздал: 26.4 TB
100%
Откуда: Кривой Рог
ukraine.gif
Что бы посмотреть вечером с девушкой? Конечно урок массажа на голом языке

_________________
Пьяную девушку легче довести до оргазма чем домой ©
Показать сообщения:   
Начать новую тему   Ответить на тему    Торрент-трекер NNM-Club -> Обучающие видеоматериалы -> Другие видеокурсы Часовой пояс: GMT + 3
Страницы:   Пред.  1, 2
Страница 2 из 2