Классический форум-трекер
canvas not supported
Нас вместе: 4 166 487

Newman - The Art Of Balance / Under Southern Skies (2010, 2011) [FLAC/APE|Lossless]<Melodic Hard Rock, AOR>


 
 
RSS
Начать новую тему   Ответить на тему    Торрент-трекер NNM-Club -> Архив торрентов -> Архив Музыки
Автор Сообщение
poseydonbond ®
Стаж: 11 лет 1 мес.
Сообщений: 1834
Ratio: 1873.122
Раздал: 49.33 TB
Поблагодарили: 42340
100%
Откуда: Владимир Конкретно: Доброе
pirates.png
Newman - The Art Of Balance / Under Southern Skies (2010, 2011)


Год: 2010
Жанр: Melodic Hard Rock, AOR

Сканы: Комплект
Кодек: FLAC/APE (image+.cue)
Битрейт: Lossless
Продолжительноcть: 01:00:39
Лейбл: Chrome Dome Music
Каталог №: CRDO-10-01

Кодек: FLAC

Треклист:
01. Hero To Zero [5:22]
02. Edge Of The World [5:45]
03. Endless [4:36]
04. The Miracle [6:03]
05. Stay With Me [4:03]
06. Tumble Down [4:51]
07. Wish You Well [4:18]
08. Find My Heart [4:52]
09. Your Surrender [4:44]
10. Break It Again [4:39]
11. Forever [4:34]
12. Stronger [6:52]
Код:

REM GENRE AOR
REM DATE 2010
REM DISCID A10E360C
REM COMMENT "ExactAudioCopy v0.99pb5"
PERFORMER "Newman"
TITLE "The Art Of Balance"
FILE "Newman - The Art Of Balance.flac" WAVE
  TRACK 01 AUDIO
    TITLE "Hero To Zero"
    PERFORMER "Newman"
    INDEX 01 00:00:00
  TRACK 02 AUDIO
    TITLE "Edge Of The World"
    PERFORMER "Newman"
    INDEX 01 05:21:48
  TRACK 03 AUDIO
    TITLE "Endless"
    PERFORMER "Newman"
    INDEX 01 11:06:58
  TRACK 04 AUDIO
    TITLE "The Miracle"
    PERFORMER "Newman"
    INDEX 01 15:43:13
  TRACK 05 AUDIO
    TITLE "Stay With Me"
    PERFORMER "Newman"
    INDEX 01 21:46:42
  TRACK 06 AUDIO
    TITLE "Tumble Down"
    PERFORMER "Newman"
    INDEX 01 25:49:33
  TRACK 07 AUDIO
    TITLE "Wish You Well"
    PERFORMER "Newman"
    INDEX 01 30:40:48
  TRACK 08 AUDIO
    TITLE "Find My Heart"
    PERFORMER "Newman"
    INDEX 01 34:58:32
  TRACK 09 AUDIO
    TITLE "Your Surrender"
    PERFORMER "Newman"
    INDEX 01 39:50:08
  TRACK 10 AUDIO
    TITLE "Break It Again"
    PERFORMER "Newman"
    INDEX 01 44:33:50
  TRACK 11 AUDIO
    TITLE "Forever"
    PERFORMER "Newman"
    INDEX 01 49:12:26
  TRACK 12 AUDIO
    TITLE "Stronger"
    PERFORMER "Newman"
    INDEX 01 53:46:15
Код:

Exact Audio Copy V0.99 prebeta 5 from 4. May 2009

Отчёт EAC об извлечении, выполненном 18. октября 2011, 21:47

Newman / The Art Of Balance

Дисковод: SlimtypeDVD A  DS8A5SH   Adapter: 0  ID: 1

Режим чтения                 : Достоверность
Использование точного потока : Да
Отключение кэша аудио        : Да
Использование указателей C2  : Нет

Коррекция смещения при чтении                     : 6
Способность читать области Lead-in и Lead-out     : Нет
Заполнение пропущенных сэмплов тишиной            : Да
Удаление блоков с тишиной в начале и конце        : Нет
При вычислениях CRC использовались нулевые сэмплы : Да
Интерфейс                                         : Встроенный Win32-интерфейс для Win NT/2000

Выходной формат          : Пользовательский кодировщик
Выбранный битрейт        : 320 kBit/s
Качество                 : Высокий
Добавление ID3-тэга      : Нет
Утилита сжатия           : C:\Program Files (x86)\Exact Audio Copy\Flac\flac.exe
Дополнительные параметры : -8 -V %s

TOC извлечённого CD

     Трек |   Старт  | Длительность | Начальный сектор | Конечный сектор
    ---------------------------------------------------------------------
       1  |  0:00.00 |    5:21.48   |           0      |      24122
       2  |  5:21.48 |    5:45.10   |       24123      |      50007
       3  | 11:06.58 |    4:36.30   |       50008      |      70737
       4  | 15:43.13 |    6:03.29   |       70738      |      97991
       5  | 21:46.42 |    4:02.66   |       97992      |     116207
       6  | 25:49.33 |    4:51.15   |      116208      |     138047
       7  | 30:40.48 |    4:17.59   |      138048      |     157381
       8  | 34:58.32 |    4:51.51   |      157382      |     179257
       9  | 39:50.08 |    4:43.42   |      179258      |     200524
      10  | 44:33.50 |    4:38.51   |      200525      |     221425
      11  | 49:12.26 |    4:33.64   |      221426      |     241964
      12  | 53:46.15 |    6:52.24   |      241965      |     272888

Характеристики диапазона извлечения и сообщения об ошибках

Выбранный диапазон

     Имя файла D:\My Music\Newman - 2010 The Art Of Balance\Newman - The Art Of Balance.wav

     Пиковый уровень 100.0 %
     Качество диапазона 100.0 %
     CRC теста 17C4105F
     CRC копии 17C4105F
     Копирование... OK

Ошибок не произошло

AccurateRip: сводка

Трек  1  нет в базе данных
Трек  2  нет в базе данных
Трек  3  нет в базе данных
Трек  4  нет в базе данных
Трек  5  нет в базе данных
Трек  6  нет в базе данных
Трек  7  нет в базе данных
Трек  8  нет в базе данных
Трек  9  нет в базе данных
Трек 10  нет в базе данных
Трек 11  нет в базе данных
Трек 12  нет в базе данных

Ни одного трека нет в базе AccurateRip

Конец отчёта
Код:

-----------------------

DON'T MODIFY THIS FILE

-----------------------

PERFORMER: auCDtect Task Manager, ver. 1.5.1RC3 build 1.5.1.4
Copyright (c) 2008-2010 y-soft. All rights reserved
http://y-soft.org

ANALYZER: auCDtect: CD records authenticity detector, version 0.8.2
Copyright (c) 2004 Oleg Berngardt. All rights reserved.
Copyright (c) 2004 Alexander Djourik. All rights reserved.

FILE: Newman - The Art Of Balance.flac
  Size: 473431179 Hash: E21D2B150614195A655B405E9C30B85A Accuracy: -m0
  Conclusion: CDDA 100%
  Signature: 4463E657B93F938ADCA2A12891953748285EE74F
Продолжительноcть: 00:55:25

Лейбл: AOR HEAVEN
Каталог №: AORH00063
Сканы: Комплект

Кодек: APE (image + .cue)

Треклиcт:
01. Killing Me [4:48]
02. If He Loves You [4:58]
03. Under Southern Skies [5:37]
04. Strength To Carry On [4:22]
05. Ghost In The Night [4:20]
06. Without Warning [5:40]
07. She's Gone [4:19]
08. Fire With Fire [4:58]
09. Save No Prisoners [4:27]
10. Wish You Were Here [4:35]
11. Montserrat [7:22]



Код:
REM GENRE Rock
REM DATE 2011
REM DISCID A90CFD0B
REM COMMENT "ExactAudioCopy v0.99pb5"
PERFORMER "Newman"
TITLE "Under Southern Skies"
FILE "Under Southern Skies.ape" WAVE
  TRACK 01 AUDIO
    TITLE "Killing Me"
    PERFORMER "Newman"
    FLAGS DCP
    INDEX 01 00:00:00
  TRACK 02 AUDIO
    TITLE "If He Loves You"
    PERFORMER "Newman"
    FLAGS DCP
    INDEX 01 04:47:69
  TRACK 03 AUDIO
    TITLE "Under Southern Skies"
    PERFORMER "Newman"
    FLAGS DCP
    INDEX 01 09:45:58
  TRACK 04 AUDIO
    TITLE "Strength To Carry On"
    PERFORMER "Newman"
    FLAGS DCP
    INDEX 01 15:22:27
  TRACK 05 AUDIO
    TITLE "Ghost In The Night"
    PERFORMER "Newman"
    FLAGS DCP
    INDEX 01 19:44:47
  TRACK 06 AUDIO
    TITLE "Without Warning"
    PERFORMER "Newman"
    FLAGS DCP
    INDEX 01 24:04:23
  TRACK 07 AUDIO
    TITLE "She's Gone"
    PERFORMER "Newman"
    FLAGS DCP
    INDEX 01 29:44:11
  TRACK 08 AUDIO
    TITLE "Fire With Fire"
    PERFORMER "Newman"
    FLAGS DCP
    INDEX 01 34:02:73
  TRACK 09 AUDIO
    TITLE "Save No Prisoners"
    PERFORMER "Newman"
    FLAGS DCP
    INDEX 01 39:00:38
  TRACK 10 AUDIO
    TITLE "Wish You Were Here"
    PERFORMER "Newman"
    FLAGS DCP
    INDEX 01 43:27:68
  TRACK 11 AUDIO
    TITLE "Montserrat"
    PERFORMER "Newman"
    FLAGS DCP
    INDEX 01 48:02:55
Код:

Exact Audio Copy V0.99 prebeta 5 from 4. May 2009

EAC extraction logfile from 13. October 2011, 17:48

Newman / Under Southern Skies

Used drive  : TSSTcorpCDDVDW SH-S223C   Adapter: 1  ID: 1

Read mode               : Secure
Utilize accurate stream : Yes
Defeat audio cache      : Yes
Make use of C2 pointers : No

Read offset correction                      : 697
Overread into Lead-In and Lead-Out          : No
Fill up missing offset samples with silence : Yes
Delete leading and trailing silent blocks   : No
Null samples used in CRC calculations       : Yes
Used interface                              : Installed external ASPI interface

Used output format : Internal WAV Routines
Sample format      : 44.100 Hz; 16 Bit; Stereo

TOC of the extracted CD

     Track |   Start  |  Length  | Start sector | End sector
    ---------------------------------------------------------
        1  |  0:00.00 |  4:47.69 |         0    |    21593
        2  |  4:47.69 |  4:57.64 |     21594    |    43932
        3  |  9:45.58 |  5:36.44 |     43933    |    69176
        4  | 15:22.27 |  4:22.20 |     69177    |    88846
        5  | 19:44.47 |  4:19.51 |     88847    |   108322
        6  | 24:04.23 |  5:39.63 |    108323    |   133810
        7  | 29:44.11 |  4:18.62 |    133811    |   153222
        8  | 34:02.73 |  4:57.40 |    153223    |   175537
        9  | 39:00.38 |  4:27.30 |    175538    |   195592
       10  | 43:27.68 |  4:34.62 |    195593    |   216204
       11  | 48:02.55 |  7:22.32 |    216205    |   249386

Range status and errors

Selected range

     Filename E:\Newman - Under Southern Skies (2011)\Under Southern Skies.wav

     Peak level 99.7 %
     Range quality 100.0 %
     Copy CRC E6C0BEC9
     Copy OK

No errors occurred

End of status report
Код:

-----------------------

DON'T MODIFY THIS FILE

-----------------------

PERFORMER: auCDtect Task Manager, ver. 1.5.1RC3 build 1.5.1.4
Copyright (c) 2008-2010 y-soft. All rights reserved
http://y-soft.org

ANALYZER: auCDtect: CD records authenticity detector, version 0.8.2
Copyright (c) 2004 Oleg Berngardt. All rights reserved.
Copyright (c) 2004 Alexander Djourik. All rights reserved.

FILE: Under Southern Skies.ape
  Size: 399332820 Hash: B631C44586B85DBA6EBF6765CA62BC08 Accuracy: -m0
  Conclusion: CDDA 100%
  Signature: 2AADE2C3AD9ECD00D814ABEB33A4C1414F4A9E45



Поглощение/вытеснение
Только с согласия релизера

DesideriuM

Реставрация релиза: Pashketan
[NNM-Club.ru]_Newman.torrent
 Торрент: Платиновая раздача  Зарегистрирован
 
Скачать


 Зарегистрирован:   21 Окт 2011 15:05:27
 Размер:   858 MB  (
 Рейтинг:    (Голосов: 9)
 Поблагодарили:   37
 Проверка:   Оформление проверено модератором 21 Окт 2011 18:58:33
Как cкачать  ·  Как раздать  ·  Правильно оформить  ·  Поднять ратио!  
poseydonbond ®
Стаж: 11 лет 1 мес.
Сообщений: 1834
Ratio: 1873.122
Раздал: 49.33 TB
Поблагодарили: 42340
100%
Откуда: Владимир Конкретно: Доброе
pirates.png

Изменения:
1. Изменена структура папок (см. список файлов)
2. Добавлен альбом "The Art Of Balance"
Просьба к сидам, внести изменения и перезагрузить торрент-файл.
21.10.2011
bombardir2705
Стаж: 10 лет 5 мес.
Сообщений: 356
Ratio: 23.495
Поблагодарили: 1
100%
ussr.gif
спасибо :да:
Топик был перенесен из форума Hard Rock (Lossless) в форум Архив Музыки

Причина переноса: Длительное отсутствие сида на протяжении более 6 месяцев.

Исправил релиз - напиши ЛС chaosman1986, дав ссылку на релиз.
Если нет ответа 24 часа - нажми на кнопку "Обратить внимание модераторов".
Показать сообщения:   
Начать новую тему   Ответить на тему    Торрент-трекер NNM-Club -> Архив торрентов -> Архив Музыки Часовой пояс: GMT + 3
Страница 1 из 1