Классический форум-трекер
canvas not supported
Нас вместе: 4 165 225

M.ILL.ION - Sane & Insanity (2011) [FLAC|Lossless]<Hard'n'heavy>


 
 
RSS
Начать новую тему   Ответить на тему    Торрент-трекер NNM-Club -> Архив торрентов -> Архив Музыки
Автор Сообщение
Bigbeer ®
RG Music
Сталкер
Стаж: 12 лет
Сообщений: 3270
Ratio: 306.742
Поблагодарили: 60465
100%
pirates.png
M.ILL.ION - Sane & Insanity (2011)
Год: 2011
Издание: Metal Heaven
Catalog Nr: MHV00091
Жанр: Hard'n'heavy
Продолжительность: 00:52:03

Кодек: FLAC
Тип рипа: Image+.cue
Битрейт: Lossless
Треклист:
01. Sea Of Fate (1:15)
02. Cry To Heaven (4:11)
03. Everyday Hero (3:13)
04. Tomorrow Never Dies (3:56)
05. I Raise My Glass (3:33)
06. Sane And Insanity (5:44)
07. Hells Gate (3:30)
08. Under Your Wings (4:40)
09. Fuel To My Heart (4:59)
10. Drama Queens (4:06)
11. Test Of Time (3:43)
12. Hate (5:03)
13. Seize The Day (4:10)
Код:

REM GENRE "Heavy Metal"
REM DATE 2011
REM DISCID A50C330D
REM COMMENT "ExactAudioCopy v0.99pb5"
PERFORMER "M.ILL.ION"
TITLE "Sane & Insanity"
FILE "M.ILL.ION - Sane & Insanity.flac" WAVE
  TRACK 01 AUDIO
    TITLE "Sea Of Fate"
    PERFORMER "M.ILL.ION"
    INDEX 01 00:00:00
  TRACK 02 AUDIO
    TITLE "Cry To Heaven"
    PERFORMER "M.ILL.ION"
    INDEX 01 01:15:20
  TRACK 03 AUDIO
    TITLE "Everyday Hero"
    PERFORMER "M.ILL.ION"
    INDEX 01 05:26:51
  TRACK 04 AUDIO
    TITLE "Tomorrow Never Dies"
    PERFORMER "M.ILL.ION"
    INDEX 01 08:39:47
  TRACK 05 AUDIO
    TITLE "I Raise My Glass"
    PERFORMER "M.ILL.ION"
    INDEX 01 12:35:42
  TRACK 06 AUDIO
    TITLE "Sane And Insanity"
    PERFORMER "M.ILL.ION"
    INDEX 01 16:08:21
  TRACK 07 AUDIO
    TITLE "Hells Gate"
    PERFORMER "M.ILL.ION"
    INDEX 01 21:51:66
  TRACK 08 AUDIO
    TITLE "Under Your Wings"
    PERFORMER "M.ILL.ION"
    INDEX 01 25:22:10
  TRACK 09 AUDIO
    TITLE "Fuel To My Heart"
    PERFORMER "M.ILL.ION"
    INDEX 01 30:02:08
  TRACK 10 AUDIO
    TITLE "Drama Queens"
    PERFORMER "M.ILL.ION"
    INDEX 01 35:00:74
  TRACK 11 AUDIO
    TITLE "Test Of Time"
    PERFORMER "M.ILL.ION"
    INDEX 01 39:07:13
  TRACK 12 AUDIO
    TITLE "Hate"
    PERFORMER "M.ILL.ION"
    INDEX 01 42:50:01
  TRACK 13 AUDIO
    TITLE "Seize The Day"
    PERFORMER "M.ILL.ION"
    INDEX 01 47:52:71

Код:

Exact Audio Copy V0.99 prebeta 5 from 4. May 2009

EAC extraction logfile from 29. October 2011, 13:25

M.ILL.ION / Sane & Insanity

Used drive  : ATAPI   iHAS624   B   Adapter: 2  ID: 0

Read mode               : Secure
Utilize accurate stream : Yes
Defeat audio cache      : Yes
Make use of C2 pointers : No

Read offset correction                      : 6
Overread into Lead-In and Lead-Out          : No
Fill up missing offset samples with silence : Yes
Delete leading and trailing silent blocks   : No
Null samples used in CRC calculations       : Yes
Used interface                              : Installed external ASPI interface

Used output format              : User Defined Encoder
Selected bitrate                : 40 kBit/s
Quality                         : High
Add ID3 tag                     : No
Command line compressor         : C:\Program Files\Exact Audio Copy\Flac\flac.exe
Additional command line options : -6 -V %s

TOC of the extracted CD

     Track |   Start  |  Length  | Start sector | End sector
    ---------------------------------------------------------
        1  |  0:00.00 |  1:15.20 |         0    |     5644
        2  |  1:15.20 |  4:11.31 |      5645    |    24500
        3  |  5:26.51 |  3:12.71 |     24501    |    38971
        4  |  8:39.47 |  3:55.70 |     38972    |    56666
        5  | 12:35.42 |  3:32.54 |     56667    |    72620
        6  | 16:08.21 |  5:43.45 |     72621    |    98390
        7  | 21:51.66 |  3:30.19 |     98391    |   114159
        8  | 25:22.10 |  4:39.73 |    114160    |   135157
        9  | 30:02.08 |  4:58.66 |    135158    |   157573
       10  | 35:00.74 |  4:06.14 |    157574    |   176037
       11  | 39:07.13 |  3:42.63 |    176038    |   192750
       12  | 42:50.01 |  5:02.70 |    192751    |   215470
       13  | 47:52.71 |  4:10.04 |    215471    |   234224

Range status and errors

Selected range

     Filename D:\Download\M.ILL.ION - Sane & Insanity.wav

     Peak level 100.0 %
     Range quality 100.0 %
     Copy CRC 55BF867F
     Copy OK

No errors occurred

AccurateRip summary

Track  1  not present in database
Track  2  not present in database
Track  3  not present in database
Track  4  not present in database
Track  5  not present in database
Track  6  not present in database
Track  7  not present in database
Track  8  not present in database
Track  9  not present in database
Track 10  not present in database
Track 11  not present in database
Track 12  not present in database
Track 13  not present in database

None of the tracks are present in the AccurateRip database

End of status report

Код:

-----------------------

DON'T MODIFY THIS FILE

-----------------------

PERFORMER: auCDtect Task Manager, ver. 1.5.1RC4 build 1.5.1.5
Copyright (c) 2008-2010 y-soft. All rights reserved
http://y-soft.org

ANALYZER: auCDtect: CD records authenticity detector, version 0.8.2
Copyright (c) 2004 Oleg Berngardt. All rights reserved.
Copyright (c) 2004 Alexander Djourik. All rights reserved.

FILE: M.ILL.ION - Sane & Insanity.flac
  Size: 422322570 Hash: E1C325DB023A7DB0AAE896101636F3B8 Accuracy: -m0
  Conclusion: CDDA 100%
  Signature: 7EFDEE9968ADCE8CE9DB01C32F867B18EAE03428

Спасибо qazaqazaq666


Поглощение/вытеснение
Только с согласия релизера

DesideriuM

Реставрация релиза: Pashketan
[NNM-Club.ru]_M.ILL.ION.torrent
 Торрент: Платиновая раздача  Зарегистрирован
 
Скачать


 Зарегистрирован:   11 Ноя 2011 06:44:08
 Размер:   474 MB  (
 Рейтинг:    (Голосов: 5)
 Поблагодарили:   17
 Проверка:   Оформление проверено модератором 11 Ноя 2011 11:06:36
Как cкачать  ·  Как раздать  ·  Правильно оформить  ·  Поднять ратио!  
Топик был перенесен из форума Hard Rock (Lossless) в форум Архив Музыки

Причина переноса: Длительное отсутствие сида на протяжении более 6 месяцев.

Исправил релиз - напиши ЛС chaosman1986, дав ссылку на релиз.
Если нет ответа 24 часа - нажми на кнопку "Обратить внимание модераторов".
Показать сообщения:   
Начать новую тему   Ответить на тему    Торрент-трекер NNM-Club -> Архив торрентов -> Архив Музыки Часовой пояс: GMT + 3
Страница 1 из 1