Классический форум-трекер
canvas not supported
Нас вместе: 4 215 988

Ко мне, Мухтар! (1964) DVDRip


 
 
RSS
Начать новую тему   Ответить на тему    Торрент-трекер NNM-Club -> Классика кино и Старые фильмы до 90-х -> Отечественная Классика (HD*Rip/LQ, DVDRip, SATRip, VHSRip)
Автор Сообщение
ab5144 ®
Стаж: 11 лет 10 мес.
Сообщений: 2691
Ratio: 43.628
Поблагодарили: 274931
100%
Ко мне, Мухтар! (1964) DVDRip
Название: Ко мне, Мухтар!
Год выпуска: 1964
Страна: СССР
Жанр: Драма
Описание фильма:
По повести И. Меттера «Мухтар»
Приказав своей собаке лежать, красивая женщина вышла из поезда. Напрасно ждал Мухтар. Милиция хозяйку нашла, но та от собаки отказалась и продала ее за 100 рублей. Дрессировке пес не поддавался, и его уже хотели забраковать, но нашедший его в вагоне лейтенант милиции Глазычев смог уговорить начальство поработать с Мухтаром индивидуально. Доброта сделала свое - они стали служить вместе, вместе бороться с преступниками, рискуя жизнью. Но там, где было опасней, собака шла вперед.
Фильм о взаимной преданности лейтенанта милиции и овчарки по кличке Мухтар. Самоотверженный пёс, готовый жизнью заплатить за любовь, выручает хозяина в опаснейших ситуациях, которые чуть не каждый день готовит им нелёгкая служба.


Режиссер: Семен Туманов
Актеры: Юрий Никулин, Владимир Емельянов, Леонид Кмит, Юрий Белов, Алла Ларионова, Федор Никитин, Николай Крючков, Сергей Голованов, Владимир Гуляев, Лев Дуров, Вадим Захарченко, Юрий Медведев, Екатерина Савинова, Тамара Логинова, Дмитрий Масанов

Продолжительность: 01:17:50



Видеокодек: DivX 5
Битрейт видео: ~1200 kbps avg, 0.276 bit/pixel
Размер кадра: 640x272 (2.35:1), 25 fps
Качество видео: DVDRip
Аудиокодек: MP3, 2 channels
Битрейт аудио: 128.00 kbps avg, 48.0 KHz
General
Complete name : Ко мне, Мухтар!_745.avi
Format : AVI
Format/Info : Audio Video Interleave
File size : 745 MiB
Duration : 1h 17mn
Overall bit rate : 1 338 Kbps
Writing application : VirtualDubModRus 1.5.10.2 (build 2540/release)
Writing library : VirtualDubMod build 2540/release

Video
ID : 0
Format : MPEG-4 Visual
Format settings, BVOP : Yes
Format settings, QPel : No
Format settings, GMC : No warppoints
Format settings, Matrix : Default (H.263)
Codec ID : DX50
Codec ID/Hint : DivX 5
Duration : 1h 17mn
Bit rate : 1 200 Kbps
Width : 640 pixels
Height : 272 pixels
Display aspect ratio : 2.35:1
Frame rate : 25.000 fps
Color space : YUV
Chroma subsampling : 4:2:0
Bit depth : 8 bits
Scan type : Progressive
Compression mode : Lossy
Bits/(Pixel*Frame) : 0.276
Stream size : 668 MiB (90%)
Writing library : DivX 6.8.5 (UTC 2009-08-20)

Audio
ID : 1
Format : MPEG Audio
Format version : Version 1
Format profile : Layer 3
Mode : Joint stereo
Mode extension : MS Stereo
Codec ID : 55
Codec ID/Hint : MP3
Duration : 1h 17mn
Bit rate mode : Constant
Bit rate : 128 Kbps
Channel(s) : 2 channels
Sampling rate : 48.0 KHz
Compression mode : Lossy
Delay relative to video : 216ms
Stream size : 71.3 MiB (10%)
Alignment : Aligned on interleaves
Interleave, duration : 40 ms (1.00 video frame)
Interleave, preload duration : 504 ms
Скриншоты:
… о собачьей работе замолвите слово…

Что сказать о фильме, ставшей легендой. И классикой. Об одном из лучших фильмов человечества про собак.
Черно-белость - безусловно, сила этого фильма. Черное и белое - в фильме все понятно и просто - что плохо, а что хорошо.
Немецкая овчарка - лучшая порода собак. И не надо нам каких-нибудь Рексов и всяких комиссаров. У нас есть Мухтар, пусть и какой-нибудь сержант.
Не надо брутальных героев, кладущих на лопатки всю банду и выбивающих 11 из 10 при стрельбе из любого огнестрельного оружия. У нас есть наш Никулин - честный, упорный и справедливый.
И не надо нам других историй, о «собачьих работах», «Хатико» и прочих. У нас есть «Ко мне, Мухтар!» - шедевр «собачьего кинематографа».

11 из 10
Время раздачи: 24/7 до 5 скачавших
[NNM-Club.ru]_Ko mne, Muhtar!_745.avi.torrent
 Торрент: Платиновая раздача  Зарегистрирован
 
Скачать


Примагнититься
 Зарегистрирован:   01 Янв 2012 16:26:51
 Размер:   745 MB  (
 Рейтинг:   4.9 (Голосов: 59)
 Поблагодарили:   134
 Проверка:   Оформление проверено модератором 02 Янв 2012 13:46:20
Как cкачать  ·  Как раздать  ·  Правильно оформить  ·  Поднять ратио!  
Devel87
Стаж: 9 лет 5 мес.
Сообщений: 1278
Ratio: 45.153
100%
vietnam.gif
Фильм относится к разряду «классика». Смотреть интересно, а сюжет завораживает с самого начала. Вы скажете: «Конечно, тут в главной роли Никулин, с ним все фильмы интересные». Нет, друзья. Здесь в главной роли пес. Но это не мешает фильму называться идеалом.Благодарю за труды
btolks
Стаж: 11 лет 11 мес.
Сообщений: 13
Ratio: 12.19
85.64%
Откуда: Latvia
latvia.gif
.. - спасибо ! ..
Показать сообщения:   
Начать новую тему   Ответить на тему    Торрент-трекер NNM-Club -> Классика кино и Старые фильмы до 90-х -> Отечественная Классика (HD*Rip/LQ, DVDRip, SATRip, VHSRip) Часовой пояс: GMT + 3
Страница 1 из 1