Классический форум-трекер
canvas not supported
Нас вместе: 4 151 293

Французская революция / La revolution francaise (1989) DVDRip


 
 
RSS
Начать новую тему   Ответить на тему    Торрент-трекер NNM-Club -> Зарубежное кино -> Зарубежные Фильмы (SD)
Автор Сообщение
stalker67 ®
Покровитель талантов
Стаж: 10 лет 7 мес.
Сообщений: 630
Ratio: 69.874
Поблагодарили: 43151
100%
Откуда: K-Ч
russia.gif
Французская революция / La revolution francaise (1989) DVDRip
Русское название: Французская революция
Оригинальное название: La revolution francaise
Год выпуска: 1989
Жанр: Драма, Военный, История

Описание фильма:
Масштабная постановка истории Французской революции.
Первая часть "Годы света" охватывает события 1789-1792 годов (когда король Людовик XVI находился на престоле).
Вторая часть "Годы ужаса" завершается событиями 1794 года. В ней отображены перепетии истории, связанные со смертью на гильотине Людовика XVI, Марии-Антуанетты, Дантона и других революционеров.

Режиссер: Робер Энрико, Ричард Т. Хеффрон
Актеры: Клаус Мария Брандауэр, Джейн Сеймур, Франсуа Клюзе, Жан-Франсуа Бальме, Анджей Северин, Марианн Басле, Питер Устинов, Клаудия Кардинале, Сэм Нил, Витторио Меццоджорно

Продолжительность: 02:45:58 + 02:34:07
Перевод: Многоголосый закадровый



Видеокодек: Xvid
Качество видео: DVDRip
Видео: MPEG4, XviD, 608x368 (1.652), 25.000 fps, 1 041 Kbps (0.186 bit/pixel)
Аудио: MP3, 48.0 KHz, 2 ch, 128 Kbps, CBR
Сэмпл: Ссылка
Общее
Полное имя : F:\Фильмы\Французская революция\Frantsuskaja_revolutsija\Frantsuskaja_revolutsija_01.avi
Формат : AVI
Формат/Информация : Audio Video Interleave
Размер файла : 1,37 Гбайт
Продолжительность : 2 ч. 45 м.
Общий поток : 1178 Кбит/сек
Программа кодирования : VirtualDubMod 1.6.0.0 SURROUND (build 2560/release)
Библиотека кодирования : VirtualDubMod build 2560/release

Видео
Идентификатор : 0
Формат : MPEG-4 Visual
Профиль формата : Advanced Simple@L5
Параметр BVOP формата : 1
Параметр QPel формата : Нет
Параметр GMC формата : Без точки перехода
Параметр матрицы формата : Default (MPEG)
Режим смешивания : Сжатый битовый поток
Идентификатор кодека : XVID
Идентификатор кодека/Подсказка : XviD
Продолжительность : 2 ч. 45 м.
Битрейт : 1041 Кбит/сек
Ширина : 608 пикселей
Высота : 368 пикселей
Соотношение сторон : 1,652
Частота кадров : 25,000 кадров/сек
Цветовое пространство : YUV
Субдискретизация насыщенности : 4:2:0
Битовая глубина : 8 бит
Тип развёртки : Прогрессивная
Метод сжатия : С потерями
Бит/(Пиксели*Кадры) : 0.186
Размер потока : 1,21 Гбайт (88%)
Библиотека кодирования : XviD 1.2.0.dev47 (UTC 2006-11-01)

Аудио
Идентификатор : 1
Формат : MPEG Audio
Версия формата : Version 1
Профиль формата : Layer 3
Идентификатор кодека : 55
Идентификатор кодека/Подсказка : MP3
Продолжительность : 2 ч. 45 м.
Вид битрейта : Постоянный
Битрейт : 128 Кбит/сек
Каналы : 2 канала
Частота : 48,0 КГц
Метод сжатия : С потерями
Размер потока : 152 Мбайт (11%)
Выравнивание : Соединение по промежуткам
Продолжительность промежутка : 40 мс. (1,00 видеокадр)
Время предзагрузки промежутка : 504 мс.
Скриншоты:




Время раздачи: с 8:00 до 24:00
[NNM-Club.ru]_Frantsuskaja_revolutsija.torrent
 Торрент: Платиновая раздача  Зарегистрирован
 
Скачать


Примагнититься
 Зарегистрирован:   06 Янв 2012 07:37:47
 Размер:   2.73 GB  (
 Рейтинг:   4.8 (Голосов: 38)
 Поблагодарили:   155
 Проверка:   Оформление проверено модератором 06 Янв 2012 09:35:40
Как cкачать  ·  Как раздать  ·  Правильно оформить  ·  Поднять ратио!  
Phoenix1980
Стаж: 9 лет 9 мес.
Сообщений: 9
Ratio: 1.333
0.22%
Спасибо за релиз. Отличная постановка. Давно искал. С Рождеством автора раздачи и всех-всех-всех...
Колобок2
Стаж: 11 лет 2 мес.
Сообщений: 81
Ratio: 8.308
62.26%
Когда же нормальный и правдивый фильм про 1917 г. в России снимут? Хотя бы на основе мемуаров участников событий . За раздачу спасибо.
Dosti
Только чтение
Стаж: 10 лет 2 мес.
Сообщений: 338
Ratio: 9.502
Поблагодарили: 4
100%
estonia.gif
Колобок2а когда в России вообще снимали что-то правдивое?
kirgoph
Стаж: 11 лет 3 мес.
Сообщений: 20
Ratio: 5.994
100%
canada.gif
Колобок2
Недавно сняли фильм "Жила-была одна баба". В нем показаны изменения с приходом банд, большевиков и белых.
Еще хорошо показаны отношения Филипп Филиппыча со Швондером...
dim721
Стаж: 9 лет 11 мес.
Сообщений: 41
Ratio: 14.859
0%
к Михалкову вам надо обратится с подобной просьбой, он снимет самое правдивое, и себя в роли царя - обязательно
Gurkin56
Стаж: 10 лет 10 мес.
Сообщений: 2659
Ratio: 0.895
Поблагодарили: 187836
100%
Откуда: Wonderland
dim721 писал(а): Перейти к сообщению
к Михалкову вам надо обратится с подобной просьбой, он снимет самое правдивое, и себя в роли царя - обязательно


Не царя, короля, там ему голову и снесут! :да:
MZMA
Стаж: 9 лет 8 мес.
Сообщений: 193
Ratio: 12.12
100%
ussr.gif
Колобок2
Недавно сняли фильм "Жила-была одна баба". В нем показаны изменения с приходом банд, большевиков и белых.
Еще хорошо показаны отношения Филипп Филиппыча со Швондером...

Такого гнусного пасквиля на русскую деревню и уркаганско-отмороженной(интонации - как будто они ещё в глухаре снимаються) игры актёров я ещё не видал.
Отсмотрел половину и удалил,чють не сташнило от этой гадости.
miraserg
Только чтение
Стаж: 11 лет 11 мес.
Сообщений: 421
Ratio: 0.4
100%
Откуда: VOROSHILOVgrad
ussr.gif
Gurkin56 писал(а): Перейти к сообщению
dim721 писал(а): Перейти к сообщению
к Михалкову вам надо обратится с подобной просьбой, он снимет самое правдивое, и себя в роли царя - обязательно


Не царя, короля, там ему голову и снесут! :да:


а, что она была когда нибудь там,

всегда считал, что только подставка для шляп.
Gurkin56
Стаж: 10 лет 10 мес.
Сообщений: 2659
Ratio: 0.895
Поблагодарили: 187836
100%
Откуда: Wonderland
Фильм отличный! Сейчас такие уже не снимают. Работу гильотины в 3d - это запросто, а остальное ушло. Из свежих фильмов исторического жанра понравился "Аноним", бережным отношениям к приметам времени, но там фантазии на тему Шекспира, а здесь живой пульс истории.
Стоит посмотреть бунтарям, как гидра лреволюции пожирает своих детей.
Maori45
Стаж: 11 лет 7 мес.
Сообщений: 333
Ratio: 72.739
100%
latvia.gif
Шикарный фильм.Мне щё и тема сама по себе интересна.Сталкеру большое спасибо.
Показать сообщения:   
Начать новую тему   Ответить на тему    Торрент-трекер NNM-Club -> Зарубежное кино -> Зарубежные Фильмы (SD) Часовой пояс: GMT + 3
Страница 1 из 1