Классический форум-трекер
canvas not supported
Нас вместе: 4 216 169

Заражение / Contagion (2011) BDRip [H.264] [PR]


Страницы:   Пред.  1, 2, 3 
 
RSS
Начать новую тему   Ответить на тему    Торрент-трекер NNM-Club -> Зарубежное кино -> Зарубежные Фильмы (SD)
Автор Сообщение
andr1525 ®
Покровитель талантов
Стаж: 12 лет 3 мес.
Сообщений: 2139
Ratio: 5.574
Поблагодарили: 171270
100%
russia.gif
Заражение / Contagion (2011) BDRip [H.264]
«Скоро мир будет инфицирован.»

Производство: Warner Bros. Pictures, США — ОАЭ
Жанр: Триллер, Драма

Режиссер: Стивен Содерберг
Продюсер: Грегори Джейкобс, Майкл Шамберг, Стейси Шер, ...
Актеры: Мэтт Дэймон, Марион Котийяр, Джуд Лоу, Гвинет Пэлтроу, Кейт Уинслет, Дженнифер Эль, Лоренс Фишбёрн, Брайан Крэнстон, Джон Хоукс, Санаа Лэтэн

Описание:
Международная организация врачей совместно с Центром по контролю и профилактике заболеваний США пытается помешать распространению смертельного вируса.




Продолжительность: 01:46:25
Качество видео: BDRip
Перевод: Профессиональный (полное дублирование) [Лицензия Blu-ray CEE]
Субтитры: Русские (полные, форсированные), Английские
Дополнительно: Сохранены оригинальные чаптеры, как на Blu-Ray

Видео: AVC/H.264, 1036x582, ~2500 Kbps
Аудио 1: AC3, 6 ch, 448 Kbps - Русский
Аудио 2: AC3, 6 ch, 448 Kbps - Английский

Общее
Уникальный идентификатор : 175389529835979813034546639404737486389 (0x83F2CB745CF94E24B3F7D97C5C03DE35)
Полное имя : C:\Users\ИриSка\Downloads\Zarazhenie.2011.BDRip.H264.mkv
Формат : Matroska
Версия формата : Version 2
Размер файла : 2,53 Гбайт
Продолжительность : 1 ч. 46 м.
Общий поток : 3398 Кбит/сек
Дата кодирования : UTC 2012-01-27 15:31:05
Программа кодирования : mkvmerge v5.2.1 ('A Far Off Place') built on Jan 2 2012 23:21:10
Библиотека кодирования : libebml v1.2.3 + libmatroska v1.3.0

Видео
Идентификатор : 1
Формат : AVC
Формат/Информация : Advanced Video Codec
Профиль формата : High@L4.1
Параметр CABAC формата : Да
Параметр ReFrames формата : 9 кадров
Идентификатор кодека : V_MPEG4/ISO/AVC
Продолжительность : 1 ч. 46 м.
Битрейт : 2500 Кбит/сек
Ширина : 1036 пикселей
Высота : 582 пикселя
Соотношение сторон : 16:9
Частота кадров : 23,976 кадра/сек
Цветовое пространство : YUV
Субдискретизация насыщенности : 4:2:0
Битовая глубина : 8 бит
Тип развёртки : Прогрессивная
Бит/(Пиксели*Кадры) : 0.173
Размер потока : 1,81 Гбайт (72%)

Аудио #1
Идентификатор : 2
Формат : AC-3
Формат/Информация : Audio Coding 3
Расширение режима : CM (complete main)
Идентификатор кодека : A_AC3
Продолжительность : 1 ч. 46 м.
Вид битрейта : Постоянный
Битрейт : 448 Кбит/сек
Каналы : 6 каналов
Расположение каналов : Front: L C R, Side: L R, LFE
Частота : 48,0 КГц
Битовая глубина : 16 бит
Метод сжатия : С потерями
Размер потока : 341 Мбайт (13%)
Заголовок : Дубляж (BD CEE) AC3 5.1 @ 448 kbps
Язык : Russian
Default : Да
Forced : Да

Аудио #2
Идентификатор : 3
Формат : AC-3
Формат/Информация : Audio Coding 3
Расширение режима : CM (complete main)
Идентификатор кодека : A_AC3
Продолжительность : 1 ч. 46 м.
Вид битрейта : Постоянный
Битрейт : 448 Кбит/сек
Каналы : 6 каналов
Расположение каналов : Front: L C R, Side: L R, LFE
Частота : 48,0 КГц
Битовая глубина : 16 бит
Метод сжатия : С потерями
Размер потока : 341 Мбайт (13%)
Заголовок : Оригинал AC3 5.1 @ 448 kbps
Язык : English
Default : Нет
Forced : Да

Текст #1
Идентификатор : 4
Формат : UTF-8
Идентификатор кодека : S_TEXT/UTF8
Идентификатор кодека/Информация : UTF-8 Plain Text
Заголовок : Forced
Язык : Russian
Default : Да
Forced : Да

Текст #2
Идентификатор : 5
Формат : UTF-8
Идентификатор кодека : S_TEXT/UTF8
Идентификатор кодека/Информация : UTF-8 Plain Text
Заголовок : Full
Язык : Russian
Default : Нет
Forced : Да

Текст #3
Идентификатор : 6
Формат : UTF-8
Идентификатор кодека : S_TEXT/UTF8
Идентификатор кодека/Информация : UTF-8 Plain Text
Заголовок : Full
Язык : English
Default : Нет
Forced : Да

Меню
00:00:00.000 : en:Chapter 1
00:04:33.356 : en:Chapter 2
00:07:26.780 : en:Chapter 3
00:11:08.960 : en:Chapter 4
00:14:20.818 : en:Chapter 5
00:16:01.043 : en:Chapter 6
00:17:44.814 : en:Chapter 7
00:20:15.464 : en:Chapter 8
00:22:23.634 : en:Chapter 9
00:24:11.909 : en:Chapter 10
00:26:55.781 : en:Chapter 11
00:30:31.997 : en:Chapter 12
00:34:17.097 : en:Chapter 13
00:36:35.026 : en:Chapter 14
00:38:40.735 : en:Chapter 15
00:41:28.236 : en:Chapter 16
00:42:51.068 : en:Chapter 17
00:46:55.146 : en:Chapter 18
00:49:49.403 : en:Chapter 19
00:52:00.951 : en:Chapter 20
00:53:57.609 : en:Chapter 21
00:57:30.364 : en:Chapter 22
01:00:54.234 : en:Chapter 23
01:03:22.716 : en:Chapter 24
01:07:42.392 : en:Chapter 25
01:10:21.259 : en:Chapter 26
01:12:34.225 : en:Chapter 27
01:15:35.322 : en:Chapter 28
01:18:10.227 : en:Chapter 29
01:22:34.032 : en:Chapter 30
01:25:23.410 : en:Chapter 31
01:31:28.358 : en:Chapter 32
01:34:35.295 : en:Chapter 33
01:36:10.556 : en:Chapter 34
01:41:28.332 : en:Chapter 35
Скриншоты:


Все одноименные релизы в Клубе

Время раздачи: С 10.00 до 23.00
[NNM-Club.ru]_Zarazhenie.2011.BDRip.H264.mkv.torrent
 Торрент: Платиновая раздача  Зарегистрирован
 
Скачать


Примагнититься
 Зарегистрирован:   29 Янв 2012 13:26:15
 Размер:   2.53 GB  (
 Рейтинг:   4.7 (Голосов: 224)
 Поблагодарили:   919
 Проверка:   Оформление проверено модератором 30 Янв 2012 06:24:10
Как cкачать  ·  Как раздать  ·  Правильно оформить  ·  Поднять ратио!  
abramor2
Стаж: 11 лет 10 мес.
Сообщений: 14
Ratio: 4.328
100%
мы все умрем!!!
serenik
Стаж: 3 года 1 мес.
Сообщений: 5
Ratio: 2.893
0%
так интересно читать комментарии 2012 года. Фильм отстой и т.д. жили люди в 2012 и думали сказку какую то сняли,фантастику. А оказалось фильм то прям документалка на актуальную тему. Всё так и есть, показано как себя вести,как делать не надо и к чему вообще всё это может привести.
Logvinoff01
Стаж: 11 лет 11 мес.
Сообщений: 133
Ratio: 0.493
1.65%
что значит [PR]?
Показать сообщения:   
Начать новую тему   Ответить на тему    Торрент-трекер NNM-Club -> Зарубежное кино -> Зарубежные Фильмы (SD) Часовой пояс: GMT + 3
Страницы:   Пред.  1, 2, 3
Страница 3 из 3