Классический форум-трекер
canvas not supported
Нас вместе: 4 216 510

Заражение / Contagion (2011) BDRip [H.264/1080p]


Страницы:   Пред.  1, 2, 3  След. 
 
RSS
Начать новую тему   Ответить на тему    Торрент-трекер NNM-Club -> Зарубежное кино -> Зарубежные Фильмы (HD, FHD)
Автор Сообщение
Zov72 ®
Стаж: 13 лет
Сообщений: 4743
Ratio: 110.504
Поблагодарили: 608787
100%
Откуда: Вольный кабан
wild_hogs.gif
Заражение / Contagion (2011) BDRip [H.264/1080p]
«Скоро мир будет инфицирован.»

Производство: США
Жанр: Триллер, Драма

Режиссер: Стивен Содерберг
Актеры: Марион Котийяр, Мэтт Дэймон, Лоренс Фишбёрн, Джуд Лоу, Гвинет Пэлтроу, Кейт Уинслет, Брайан Крэнстон, Дженнифер Эль, Санаа Лэтэн, Тинг Яу Цуй

Описание:
Всемирная организация здравоохранения совместно с Центром по контролю и профилактике заболеваний США пытается помешать распространению смертельного вируса неизвестного происхождения. В связи с тем, что инкубационный период заболевания очень короткий, а смертность и контагиозность высоки, отследить его происхождение трудно. Мутирование вируса затягивает получение вакцины и многие больные погибают.


Возраст: 12+ (зрителям, достигшим 12 лет)
Рейтинг MPAA: PG-13 (детям до 13 лет просмотр нежелателен)
Дата выхода Blu-Ray релиза: 26 января 2012, «CP-Digital»

Релиз от: HDClub
Продолжительность: 01:46:26
Качество видео: BDRip
Перевод: Дублированный, Двухголосый закадровый
Субтитры: Русский (forced), русский, украинский, английский (SDH)

Видео: AVC/H.264, 1920x1080, ~9224 kbps
Аудио#1: AC3, 6ch, 640 kbps - Русский дубляж, Blu-ray
Аудио#2: AC3, 6 ch, 384 kbps - Украинский дубляж, R5
Аудио#3: DTS, 6 ch, 1536 kbps - Русский авторский, Ю.Немахов
Аудио#4: DTS, 6 ch, 1536 kbps - Английский

General
Complete name : H:\Contagion.2011.1080p.Bluray.DTS.2xRus.Ukr.Eng..mkv
Format : Matroska
File size : 10.1 GiB
Duration : 1h 46mn
Overall bit rate : 13.5 Mbps
Movie name : Contagion (2011)
Encoded date : UTC 2012-02-10 17:16:08
Writing application : mkvmerge v3.2.0 ('Beginnings') built on Feb 12 2010 16:46:17
Writing library : libebml v0.7.9 + libmatroska v0.8.1

Video
ID : 1
Format : AVC
Format/Info : Advanced Video Codec
Format profile : High@L4.1
Format settings, CABAC : Yes
Format settings, ReFrames : 4 frames
Muxing mode : Container profile=Unknown@4.1
Codec ID : V_MPEG4/ISO/AVC
Duration : 1h 46mn
Bit rate : 9 224 Kbps
Nominal bit rate : 9 500 Kbps
Width : 1 920 pixels
Height : 1 080 pixels
Display aspect ratio : 16:9
Frame rate : 23.976 fps
Resolution : 8 bits
Colorimetry : 4:2:0
Scan type : Progressive
Bits/(Pixel*Frame) : 0.186
Stream size : 6.85 GiB (68%)
Title : Release for HDCLUB
Writing library : x264 core 116 r2057 0ba8a9c
Encoding settings : cabac=1 / ref=3 / deblock=1:-3:-3 / analyse=0x3:0x133 / me=umh / subme=10 / psy=1 / psy_rd=1.00:0.00 / mixed_ref=1 / me_range=32 / chroma_me=1 / trellis=2 / 8x8dct=1 / cqm=0 / deadzone=21,11 / fast_pskip=0 / chroma_qp_offset=-2 / threads=18 / sliced_threads=0 / nr=0 / decimate=0 / interlaced=0 / bluray_compat=0 / constrained_intra=0 / bframes=7 / b_pyramid=2 / b_adapt=2 / b_bias=0 / direct=3 / weightb=1 / open_gop=0 / weightp=2 / keyint=250 / keyint_min=23 / scenecut=40 / intra_refresh=0 / rc_lookahead=40 / rc=2pass / mbtree=0 / bitrate=9500 / ratetol=1.0 / qcomp=0.65 / qpmin=0 / qpmax=40 / qpstep=4 / cplxblur=20.0 / qblur=0.5 / vbv_maxrate=50000 / vbv_bufsize=50000 / nal_hrd=none / ip_ratio=1.25 / pb_ratio=1.25 / aq=1:0.65
Language : English

Audio #1
ID : 2
Format : AC-3
Format/Info : Audio Coding 3
Codec ID : A_AC3
Duration : 1h 46mn
Bit rate mode : Constant
Bit rate : 640 Kbps
Channel(s) : 6 channels
Channel positions : Front: L C R, Surround: L R, LFE
Sampling rate : 48.0 KHz
Stream size : 487 MiB (5%)
Title : AC3 5.1 640 Kbps [Дубляж, Blu-ray]
Language : Russian

Audio #2
ID : 3
Format : AC-3
Format/Info : Audio Coding 3
Codec ID : A_AC3
Duration : 1h 46mn
Bit rate mode : Constant
Bit rate : 384 Kbps
Channel(s) : 6 channels
Channel positions : Front: L C R, Surround: L R, LFE
Sampling rate : 48.0 KHz
Stream size : 292 MiB (3%)
Title : AC3 5.1 384 Kbps [Дубляж, R5]
Language : Ukrainian

Audio #3
ID : 4
Format : DTS
Format/Info : Digital Theater Systems
Codec ID : A_DTS
Duration : 1h 46mn
Bit rate mode : Constant
Bit rate : 1 510 Kbps
Channel(s) : 6 channels
Channel positions : Front: L C R, Surround: L R, LFE
Sampling rate : 48.0 KHz
Resolution : 24 bits
Stream size : 1.12 GiB (11%)
Title : DTS 5.1 1536 Kbps [Одноголосый, Ю.Немахов]
Language : Russian

Audio #4
ID : 5
Format : DTS
Format/Info : Digital Theater Systems
Codec ID : A_DTS
Duration : 1h 46mn
Bit rate mode : Constant
Bit rate : 1 510 Kbps
Channel(s) : 6 channels
Channel positions : Front: L C R, Surround: L R, LFE
Sampling rate : 48.0 KHz
Resolution : 24 bits
Video delay : 11ms
Stream size : 1.12 GiB (11%)
Title : DTS 5.1 1536 Kbps [Оригинал]
Language : English

Text #1
ID : 6
Format : UTF-8
Codec ID : S_TEXT/UTF8
Codec ID/Info : UTF-8 Plain Text
Title : Надписи и пр.
Language : Russian

Text #2
ID : 7
Format : UTF-8
Codec ID : S_TEXT/UTF8
Codec ID/Info : UTF-8 Plain Text
Language : Russian

Text #3
ID : 8
Format : UTF-8
Codec ID : S_TEXT/UTF8
Codec ID/Info : UTF-8 Plain Text
Language : Ukrainian

Text #4
ID : 9
Format : UTF-8
Codec ID : S_TEXT/UTF8
Codec ID/Info : UTF-8 Plain Text
Language : English

Menu
00:00:00.000 : en:00:00:00.000
00:04:33.356 : en:00:04:33.356
00:07:26.780 : en:00:07:26.780
00:11:08.960 : en:00:11:08.960
00:14:20.818 : en:00:14:20.818
00:16:01.043 : en:00:16:01.043
00:17:44.814 : en:00:17:44.814
00:20:15.464 : en:00:20:15.464
00:22:23.634 : en:00:22:23.634
00:24:11.909 : en:00:24:11.909
00:26:55.781 : en:00:26:55.781
00:30:31.997 : en:00:30:31.997
00:34:17.097 : en:00:34:17.097
00:36:35.026 : en:00:36:35.026
00:38:40.735 : en:00:38:40.735
00:41:28.236 : en:00:41:28.236
00:42:51.068 : en:00:42:51.068
00:46:55.146 : en:00:46:55.146
00:49:49.403 : en:00:49:49.403
00:52:00.951 : en:00:52:00.951
00:53:57.609 : en:00:53:57.609
00:57:30.364 : en:00:57:30.364
01:00:54.234 : en:01:00:54.234
01:03:22.716 : en:01:03:22.716
01:07:42.392 : en:01:07:42.392
01:10:21.259 : en:01:10:21.259
01:12:34.225 : en:01:12:34.225
01:15:35.322 : en:01:15:35.322
01:18:10.227 : en:01:18:10.227
01:22:34.032 : en:01:22:34.032
01:25:23.410 : en:01:25:23.410
01:31:28.358 : en:01:31:28.358
01:34:35.295 : en:01:34:35.295
01:36:10.556 : en:01:36:10.556
01:41:28.332 : en:01:41:28.332
Cкриншоты:


Все одноименные релизы в Клубе

Время раздачи: 24/7 (до первых 15 скачавших)
Приятного просмотра и не забываем говорить СПАСИБО
[NNM-Club.ru]_Contagion.2011.1080p.Bluray.DTS.2xRus.Ukr.Eng..mkv.torrent
 Торрент: Платиновая раздача  Зарегистрирован
 
Скачать


 Зарегистрирован:   14 Фев 2012 18:56:29
 Размер:   10.1 GB  (
 Рейтинг:   4.7 (Голосов: 263)
 Поблагодарили:   1081
 Проверка:   Оформление проверено модератором 14 Фев 2012 21:42:04
Как cкачать  ·  Как раздать  ·  Правильно оформить  ·  Поднять ратио!  

_________________
Мне чужого не надо….Но свое я заберу, чье бы оно ни было!!!
ion1731
Стаж: 11 лет 3 мес.
Сообщений: 91
Ratio: 2.15
4.45%
mali.gif
год перепутали ! не 2011 а 2020 надо было ))))
sir.Adler
Uploader 100+
Стаж: 12 лет 9 мес.
Сообщений: 2207
Ratio: 391.253
Поблагодарили: 1
100%
Откуда: Луганск
ussr.gif
Актуально :D Пару дней назад пересмотрел...

_________________
У кого есть наука, тот не нуждается в религии. © Иоганн Вольфганг фон Гёте
ruinos
Стаж: 7 лет
Сообщений: 42
Ratio: 9.727
0.16%
Вторая жизнь у фильма) Единственное, что напрягало в фильме-первые заболевшие даже не пытались обратиться в больницу, хотя чувствовали себя плохо
vovanse
Стаж: 15 лет 2 мес.
Сообщений: 29
Ratio: 10.805
27.45%
russia.gif
Актуальненько :)
Sendme2
Стаж: 11 лет 4 мес.
Сообщений: 167
Ratio: 2.261
13.27%
brazil.gif
Сейчас ситуация хуже. Инкубационный период до 28 дней. Ярко выраженных симптомов нет. Как жаль, что зараженные не превращаются в зомби, мы бы тогда его сразу победили.
MRGrenick
Стаж: 6 лет 4 мес.
Сообщений: 127
Ratio: 3.782
100%
dado писал(а): Перейти к сообщению
Мы все умрём.
Вопрос лишь в том -когда...
А ты, цеплявшийся за жизнь-зачем она тебе?
Поесть, поспать и совокупится?

Не совокупится, а подрочить в гордом одиночестве :D
Louis Cyphre
Стаж: 6 лет 11 мес.
Сообщений: 99
Ratio: 18.666
Раздал: 16.83 TB
0.65%
pirates.png
Мы все умрем, надежды нет.
Belyak83
Стаж: 8 лет 2 мес.
Сообщений: 3
Ratio: 0.971
0.13%
dado писал(а): Перейти к сообщению
Мы все умрём.
Вопрос лишь в том -когда...
А ты, цеплявшийся за жизнь-зачем она тебе?
Поесть, поспать и совокупится?

да. идеальные причины!
BAJIAP
Стаж: 9 лет 11 мес.
Сообщений: 163
Ratio: 21.229
Раздал: 6.624 TB
Поблагодарили: 6268
100%
Откуда: Город Счастья
russia.gif
Однозначно на пересмостр данной картины, тем более картина актуальная как никогда!
KilledByLove
Стаж: 10 лет 9 мес.
Сообщений: 19
Ratio: 168.855
100%
Откуда: Москва
russia.gif
BAJIAP писал(а): Перейти к сообщению
Однозначно на пересмостр данной картины, тем более картина актуальная как никогда!


Ага привет из карантина! =)
melt_brain
Uploader 100+
Стаж: 12 лет 11 мес.
Сообщений: 381
Ratio: 375.097
Раздал: 225.2 TB
100%
то чувство, когда пересмотрел уже весь интернет. 2 раза
volcano1640
Стаж: 8 лет 7 мес.
Сообщений: 304
Ratio: 4.156
9.99%
Откуда: CCCP
ussr.gif
KilledByLove писал(а): Перейти к сообщению
BAJIAP писал(а): Перейти к сообщению
Однозначно на пересмостр данной картины, тем более картина актуальная как никогда!


Ага привет из карантина! =)

Не карантин, а самоизоляция. Карантин -> форс мажор -> в *пу обязательства по всем договорам(и кредитным). Наверху дядьки не глупые сидят. Так что не путаем, пожалуйста, понятия)))
MRGrenick
Стаж: 6 лет 4 мес.
Сообщений: 127
Ratio: 3.782
100%
Вполне неплохо.
HDnet
Uploader 100+
Стаж: 11 лет 6 мес.
Сообщений: 97
Ratio: 733.067
Раздал: 561 TB
Поблагодарили: 2434
100%
usa.gif
На сегодняшний день очень актуальная картина, действительно стоит посмотреть и актерский состав не плох.
warrior2990
Стаж: 10 лет 8 мес.
Сообщений: 560
Ratio: 42.577
Раздал: 34.44 TB
100%
volcano1640 писал(а): Перейти к сообщению

Не карантин, а самоизоляция. Карантин -> форс мажор -> в *пу обязательства по всем договорам(и кредитным). Наверху дядьки не глупые сидят. Так что не путаем, пожалуйста, понятия)))

Вы упустили такой момент, как обязательный карантин для лиц с официально подтвержденным инфицированием. Самоизоляция - это только для остальных.
Показать сообщения:   
Начать новую тему   Ответить на тему    Торрент-трекер NNM-Club -> Зарубежное кино -> Зарубежные Фильмы (HD, FHD) Часовой пояс: GMT + 3
Страницы:   Пред.  1, 2, 3  След.
Страница 2 из 3