Классический форум-трекер
canvas not supported
Нас вместе: 4 166 451

Mythological Cold Towers - Immemorial (2011) [FLAC|Lossless]<Death Doom Metal>


 
 
RSS
Начать новую тему   Ответить на тему    Торрент-трекер NNM-Club -> Архив торрентов -> Архив Музыки
Автор Сообщение
Shuran80 ®
Свободный релизер
 
Стаж: 12 лет 6 мес.
Сообщений: 3348
Ratio: 1102.125
Раздал: 87.06 TB
Поблагодарили: 192317
100%
Откуда: Ленинград
ussr.gif
Mythological Cold Towers - Immemorial (2011)
Год: 2011
Жанр: Death Doom Metal
Страна: Бразилия
Продолжительность: 00:43:13

Издатель: Cyclone Empire
Номер по каталогу: CYC 084 2
Кодек: FLAC (image+.cue)
Битрейт: Lossless

Трек лист:
01. Lost Path to Ma Noa (4:01)
02. Akakor (6:34)
03. Enter the Halls of Petrous Power (7:38)
04. The Shrines of Ibez (5:10)
05. Like an ode forged in immemorial Eras (5:18)
06. The Fallen Race (9:09)
07. Immemorial (5:23)
Mythological Cold Towers - бразильская метал группа, образованная в 1994 году.

Состав:
Samej - вокал
Shammash - гитары
Nechron - клавишные, гитары
Hamon - ударные

Myspace
Код: выделить все

Exact Audio Copy V1.0 beta 3 from 29. August 2011

EAC extraction logfile from 12. March 2012, 18:11

Mythological Cold Towers / Immemorial

Used drive  : ASUS    DRW-2014S1T   Adapter: 1  ID: 1

Read mode               : Secure
Utilize accurate stream : Yes
Defeat audio cache      : Yes
Make use of C2 pointers : No

Read offset correction                      : 6
Overread into Lead-In and Lead-Out          : No
Fill up missing offset samples with silence : Yes
Delete leading and trailing silent blocks   : No
Null samples used in CRC calculations       : Yes
Used interface                              : Native Win32 interface for Win NT & 2000

Used output format              : User Defined Encoder
Selected bitrate                : 128 kBit/s
Quality                         : High
Add ID3 tag                     : No
Command line compressor         : C:\Program Files\Exact Audio Copy\Flac\flac.exe
Additional command line options : -V -8 -T "Date=%year%" -T "Genre=%genre%" %source%

TOC of the extracted CD

     Track |   Start  |  Length  | Start sector | End sector
    ---------------------------------------------------------
        1  |  0:00.00 |  4:01.03 |         0    |    18077
        2  |  4:01.03 |  6:33.71 |     18078    |    47623
        3  | 10:34.74 |  7:38.18 |     47624    |    81991
        4  | 18:13.17 |  5:09.65 |     81992    |   105231
        5  | 23:23.07 |  5:17.49 |    105232    |   129055
        6  | 28:40.56 |  9:09.10 |    129056    |   170240
        7  | 37:49.66 |  5:23.33 |    170241    |   194498

Range status and errors

Selected range

     Filename J:\Mythological Cold Towers - Immemorial.wav

     Peak level 100.0 %
     Extraction speed 7.7 X
     Range quality 100.0 %
     Test CRC 05191AEB
     Copy CRC 05191AEB
     Copy OK

No errors occurred

AccurateRip summary

Track  1  not present in database
Track  2  not present in database
Track  3  not present in database
Track  4  not present in database
Track  5  not present in database
Track  6  not present in database
Track  7  not present in database

None of the tracks are present in the AccurateRip database

End of status report

---- CUETools DB Plugin V2.1.3

[CTDB TOCID: tnQp2fDQwL3mRxOxNJp28u0Azw0-] disk not present in database, Submit result: tnQp2fDQwL3mRxOxNJp28u0Azw0- has been uploaded

==== Log checksum 1D2661E65BFFCE30A9D77CF0CEE94B17EC54D7F191F82E021D96B6A6548DED17 ====
Код: выделить все

-----------------------

DON'T MODIFY THIS FILE

-----------------------

PERFORMER: auCDtect Task Manager, ver. 1.5.1RC4 build 1.5.1.5
Copyright (c) 2008-2010 y-soft. All rights reserved
http://y-soft.org

ANALYZER: auCDtect: CD records authenticity detector, version 0.8.2
Copyright (c) 2004 Oleg Berngardt. All rights reserved.
Copyright (c) 2004 Alexander Djourik. All rights reserved.

FILE: Mythological Cold Towers - Immemorial.flac
  Size: 324687364 Hash: 40185B3C237EA104B1246581F676C7F6 Accuracy: -m0
  Conclusion: CDDA 100%
  Signature: A38CD2F50654E8FA6D7A94EF2A1B4234B16F9752
За предоставленный материал спасибо Morgion2

Время раздачи: Обычно с 19:00 до 00:00 :спит:



Поглощение/вытеснение
Только с согласия релизера

J_Man
[NNM-Club.ru]_Mythological Cold Towers - Immemorial (2011) FLAC.torrent
 Торрент: Золотая раздача  Зарегистрирован
 
Зарегистрируйтесь и скачайте торрент!
17.2 KB

 Зарегистрирован:   27 Мар 2012 20:46:09
 Размер:   412 MB  (
 Рейтинг:    (Голосов: 5)
 Поблагодарили:   17
 Проверка:   Оформление проверено модератором 28 Мар 2012 00:49:55
Как cкачать  ·  Как раздать  ·  Правильно оформить  ·  Поднять ратио!  

_________________
Внимание! Временно отсутствую на своих раздачах. Просьба понять и простить.
shalomalexey
 
Стаж: 9 лет 9 мес.
Сообщений: 2
Ratio: 4.718
Поблагодарили: 1
3.26%
Откуда: Гордеевка
russia.gif
Бразильский Doom!!! Заценим)))
Aygift
Uploader 100+
Стаж: 11 лет 2 мес.
Сообщений: 742
Ratio: 7562.056
Поблагодарили: 15640
100%
Спасибо за релиз!
Альбом - рак моих мозгов!
Топик был перенесен из форума Metal (Lossless) в форум Архив Музыки

Причина переноса: Длительное отсутствие сида на протяжении более 6 месяцев.

Исправил релиз - напиши ЛС chaosman1986, дав ссылку на релиз.
Если нет ответа 24 часа - нажми на кнопку "Обратить внимание модераторов".
Показать сообщения:   
Начать новую тему   Ответить на тему    Торрент-трекер NNM-Club -> Архив торрентов -> Архив Музыки Часовой пояс: GMT + 3
Страница 1 из 1