Классический форум-трекер
canvas not supported
Нас вместе: 4 216 233

Игра престолов / Game of Thrones (2 сезон, 1-10 серия из 10) (2012) HDTVRip [EN]


Страницы:   Пред.  1, 2, 3 
 
RSS
Начать новую тему   Ответить на тему    Торрент-трекер NNM-Club -> Зарубежные сериалы -> Сериалы без перевода
Автор Сообщение
Pashketan ®
Куратор Музыки
Стаж: 13 лет 2 мес.
Сообщений: 9891
Ratio: 15.042
Поблагодарили: 173332
100%
nnm-club.gif
Игра престолов / Game of Thrones (2 сезон, 1-10 серия из 10) (2012) HDTVRip [EN]
Русское название: Игра престолов
Оригинальное название: Game of Thrones
Год выпуска: 2012
Жанр: Драма, Фэнтези, Приключения
Язык: Английский
Перевод: Субтитры (Нотабеноид)
Вид субтитров: Отдельным файлом


Дата мировой премьеры: 1 апреля 2012

Режиссер: Алан Тейлор, Брайан Кирк, Даниэль Минахан
Актеры: Питер Динклэйдж, Марк Эдди, Николай Костер-Валдау, Мишель Фэйрли, Лена Хиди, Эмилия Кларк, Иэн Глен, Эйдан Гиллен

Описание фильма:
В Вестеросе наступила осень — предвестник долгой зимы, когда Белые ходоки пробудятся ото сна. Но Стена и её защитники позабыты: три короля претендуют на Железный трон и два верховных лорда провозгласили себя королями над своими землями. Никто из них не желает заключить союзы, и каждый считает свое право на трон священным. И воцарился над миром кровавый хаос войны. И началась великая битва, в которой наградою победителю станет Железный Трон Семи Королевств.
Страшные настали времена — времена отваги и отмщения, интриги и магии. Ныне дева повстречает безумца, а брат занесет меч на брата. Ныне убитые восстанут — и пойдут тропою Тьмы. Ныне вонзится холодная сталь в холодные сердца.
Ныне грядет предначертанная пророчеством БИТВА КОРОЛЕЙ…

Продолжительность: 10х~00:55:06
Качество видео: HDTVRip

Видеокодек: MPEG-4 AVC
Битрейт видео: ~822 Кбит/сек
Размер кадра: 720x404
Аудиокодек: AAC
Битрейт аудио: 122 Кбит/сек
Общее
Полное имя : E:\Игра престолов - 2\Game.of.Thrones.S02E01.HDTV.x264.mp4
Формат : MPEG-4
Профиль формата : Base Media
Идентификатор кодека : isom
Размер файла : 375 Мбайт
Продолжительность : 55 м.
Общий поток : 950 Кбит/сек
Дата кодирования : UTC 2011-09-08 11:43:25
Дата пометки : UTC 2011-09-08 11:43:25

Видео
Идентификатор : 1
Формат : AVC
Формат/Информация : Advanced Video Codec
Профиль формата : High@L3.1
Параметр CABAC формата : Да
Параметр ReFrames формата : 5 кадры
Идентификатор кодека : avc1
Идентификатор кодека/Информация : Advanced Video Coding
Продолжительность : 55 м.
Вид битрейта : Переменный
Битрейт : 822 Кбит/сек
Ширина : 720 пикс.
Высота : 404 пикс.
Соотношение сторон : 16:9
Соотношение сторон в оригинале : 16:9
Режим частоты кадров : Постоянный
Частота кадров : 23,976 кадр/сек
Цветовое пространство : YUV
Подвыборка цветности : 4:2:0
Битовая глубина : 8 бит
Тип развёртки : Прогрессивная
Бит/(Пиксели*Кадры) : 0.118
Размер потока : 324 Мбайт (86%)
Библиотека кодирования : x264 core 122 r2184 5c85e0a
Настройки программы : cabac=1 / ref=5 / deblock=1:0:0 / analyse=0x3:0x113 / me=umh / subme=8 / psy=1 / psy_rd=1.00:0.00 / mixed_ref=1 / me_range=16 / chroma_me=1 / trellis=1 / 8x8dct=1 / cqm=0 / deadzone=21,11 / fast_pskip=1 / chroma_qp_offset=-2 / threads=36 / sliced_threads=0 / nr=0 / decimate=1 / interlaced=0 / bluray_compat=0 / constrained_intra=0 / bframes=3 / b_pyramid=2 / b_adapt=2 / b_bias=0 / direct=3 / weightb=1 / open_gop=0 / weightp=2 / keyint=250 / keyint_min=23 / scenecut=40 / intra_refresh=0 / rc_lookahead=50 / rc=crf / mbtree=1 / crf=19.0 / qcomp=0.60 / qpmin=0 / qpmax=69 / qpstep=4 / ip_ratio=1.40 / aq=1:1.00
Дата кодирования : UTC 2011-09-08 11:43:25
Дата пометки : UTC 2011-09-08 11:43:25
Коэффициенты матрицы : BT.709-5, BT.1361, IEC 61966-2-4 709, SMPTE RP177

Аудио
Идентификатор : 2
Формат : AAC
Формат/Информация : Advanced Audio Codec
Профиль формата : LC
Идентификатор кодека : 40
Продолжительность : 55 м.
Вид битрейта : Переменный
Битрейт : 122 Кбит/сек
Максимальный битрейт : 173 Кбит/сек
Канал(ы) : 2 канала(ов)
Расположение каналов : Front: L R
Частота : 48,0 КГц
Метод сжатия : С потерями
Размер потока : 48,3 Мбайт (13%)
Дата кодирования : UTC 2011-09-08 11:43:25
Дата пометки : UTC 2011-09-08 11:43:25
при каждом добавлении создаётся новый торрент.
Чтобы начать докачку новой серии, пользователям необходимо сделать следующее:
(1) остановить скачивание;
(2) удалить старый торрент у себя из клиента (старые серии удалять не надо);
(3) скачать новый торрент и запустить его у себя в клиенте вместо старого, при этом указать клиенту путь в старую папку куда и должно происходить скачивание новых серий.Ваш клиент при этом должен произвести хеширование (проверку) старой папки (если не производит сам - помогите ему сделать это), и будет докачивать только те серии которых у вас ещё нет. Старые серии при этом не удаляются, а продолжают раздаваться!Eсли вы уже удалили старые серии, то предотвратить повторную закачку старых серий можно, отжав галочку в соответствующих местах при запуске нового торрента.
Игра престолов / Game of Thrones
Скриншоты:


Перезалейте торрент-файл!
Добавлена 10 серия!


Время раздачи: 24/7 - круглосуточно
[NNM-Club.ru]_Igra prestolov - 2.torrent
 Торрент: Платиновая раздача  Зарегистрирован
 
Скачать


 Зарегистрирован:   04 Июн 2012 21:56:35
 Размер:   3.78 GB  (
 Рейтинг:   4.3 (Голосов: 92)
 Поблагодарили:   265
 Проверка:   Оформление проверено модератором 05 Июн 2012 00:25:34
Как cкачать  ·  Как раздать  ·  Правильно оформить  ·  Поднять ратио!  
Pashketan ®
Куратор Музыки
Стаж: 13 лет 2 мес.
Сообщений: 9891
Ratio: 15.042
Поблагодарили: 173332
100%
nnm-club.gif
Все серии 2 сезона.
Pashketan ®
Куратор Музыки
Стаж: 13 лет 2 мес.
Сообщений: 9891
Ratio: 15.042
Поблагодарили: 173332
100%
nnm-club.gif
Перезалейте торрент-файл!
Добавлена 8 серия!
Pashketan ®
Куратор Музыки
Стаж: 13 лет 2 мес.
Сообщений: 9891
Ratio: 15.042
Поблагодарили: 173332
100%
nnm-club.gif
Перезалейте торрент-файл!
Добавлена 9 серия!
Pashketan ®
Куратор Музыки
Стаж: 13 лет 2 мес.
Сообщений: 9891
Ratio: 15.042
Поблагодарили: 173332
100%
nnm-club.gif
Перезалейте торрент-файл!
Добавлена 10 серия!
Показать сообщения:   
Начать новую тему   Ответить на тему    Торрент-трекер NNM-Club -> Зарубежные сериалы -> Сериалы без перевода Часовой пояс: GMT + 3
Страницы:   Пред.  1, 2, 3
Страница 3 из 3