Классический форум-трекер
canvas not supported
Нас вместе: 4 216 200

Игра престолов / Game of Thrones (Сезон 2 полный (10)) (2012) HDTVRip (Wolrone)


Страницы:   Пред.  1, 2, 3, 4 
 
RSS
Начать новую тему   Ответить на тему    Торрент-трекер NNM-Club -> Архив торрентов -> Архив Сериалов и Архив Старого многосерийного кино до 90-х
Автор Сообщение
TollayaEkb ®
Стаж: 12 лет 10 мес.
Сообщений: 5732
Ratio: 1251.711
Раздал: 117.4 TB
Поблагодарили: 223100
100%
Откуда: Екб
russia.gif
Игра престолов / Game of Thrones
(Сезон 2, серии 01-10 из 10) (2012) HDTVRip (Wolrone)

Русское название: Игра престолов
Оригинальное название: Game of Thrones
Год выхода: 2012
Производство: США, HBO, Television 360, Grok! Studio
Жанр: Драма, фэнтази
Сезон: 2
Серии: 01-10 из 10 серий
Продолжительность: ~ 00:55:00 мин серия


Перевод: Любительский одноголосый закадровый - Wolrone

Режиссер: Тимоти Ван Паттен, Брайан Кирк, Даниэль Минахан, Алан Тейлор
В ролях: Шон Бин, Питер Динклэйдж, Марк Эдди, Николай Костер-Валдау, Мишель Фэйрли, Лена Хиди, Эмилия Кларк, Иэн Глен, Эйдан Гиллен и др.

Описание:
К концу подходит время благоденствия, и лето, длившееся несколько десятилетий, угасает. Вокруг средоточия власти Семи королевств, Железного трона, зреет заговор, и в это непростое время король решает искать поддержки у друга юности Эддарда Старка (Шон Бин). В мире, где все — от короля до наемника — рвутся к власти, плетут интриги и готовы вонзить нож в спину, есть место и благородству, состраданию и любви. Между тем, никто не замечает пробуждение тьмы из легенд далеко на Севере — и лишь Стена защищает живых к югу от нее.
Между древней ледяной Стеной и пламенем навсегда ушедших из мира драконов разворачивается «Игра престолов» — долгожданная экранизация культовой саги Джорджа Р. Р. Мартина «Песнь льда и пламени».



Качество: HDTVRip
Видео: MPEG-4 AVC, 720x404 pixels, 23.976 fps, 822 Kbps, 0.102 bit/pixel
Аудио: AAC, 48.0 KHz, 2 channels, 102 Kbps (RU)

| Сэмпл видео | Все раздачи|
Format : MPEG-4
Codec ID : M4V
File size : 306 MiB
Duration : 55mn 9s
Overall bit rate mode : Variable
Overall bit rate : 776 Kbps
Video
ID : 1
Format : AVC
Format/Info : Advanced Video Codec
Format profile : Main@L3.1
Format settings, CABAC : No
Format settings, ReFrames : 2 frames
Codec ID : avc1
Codec ID/Info : Advanced Video Coding
Duration : 55mn 9s
Bit rate mode : Constant
Bit rate : 709 Kbps
Nominal bit rate : 822 Kbps
Width : 720 pixels
Height : 404 pixels
Display aspect ratio : 16:9
Frame rate mode : Constant
Frame rate : 23.976 fps
Standard : NTSC
Color space : YUV
Chroma subsampling : 4:2:0
Bit depth : 8 bits
Scan type : Progressive
Bits/(Pixel*Frame) : 0.102
Stream size : 280 MiB (91%)
Audio
ID : 2
Format : AAC
Format/Info : Advanced Audio Codec
Format profile : LC
Codec ID : 40
Duration : 55mn 9s
Source duration : 55mn 9s
Bit rate mode : Variable
Bit rate : 61.4 Kbps
Maximum bit rate : 102 Kbps
Channel(s) : 2 channels
Channel positions : Front: L R
Sampling rate : 48.0 KHz
Compression mode : Lossy
Stream size : 24.2 MiB (8%)
Source stream size : 24.2 MiB (8%)

<<<Скриншоты>>>

Время раздачи: 24/7 - круглосуточно (до первых сидов - потом по возможности)
[NNM-Club.ru]_Game.of.Thrones.S02.HDTVRip.(wolrone).torrent
 Торрент: Платиновая раздача  Зарегистрирован
 
Скачать


 Зарегистрирован:   04 Июн 2012 21:52:51
 Размер:   4.21 GB  (
 Рейтинг:   4.7 (Голосов: 175)
 Поблагодарили:   571
 Проверка:   Оформление проверено модератором 04 Июн 2012 22:42:01
Как cкачать  ·  Как раздать  ·  Правильно оформить  ·  Поднять ратио!  
Lessers
Стаж: 11 лет 7 мес.
Сообщений: 33
Ratio: 28.24
100%
israel.gif
Bich писал(а): Перейти к сообщению
~RAT~ писал(а): Перейти к сообщению
Как же достала эта муть с престолами. Унылейший же сериал. И главное ч в Теории большого взрыва главные герои тоже по нему тащатся :(
так подобное находит подобное :) умные люди читают и смотрят умные книги, дураки читают дурацкие книги и смотрят   фильмы. Я к тому, что я с Вами полностью согласен, ненавижу это  . Предпочитаю больше умные вещи.

Мыши плакали давились, но все равно продолжали упрямо жрать кактус.
Судя по "ненавижу" человека этим УГ регулярно пытают!
bigspawn
Стаж: 11 лет 8 мес.
Сообщений: 40
Ratio: 2.863
100%
Откуда: Калуга
russia.gif
Ахренительная серия! Рад что так рано вышла! Перевод и озвучка хорошая! Молодец парень!

_________________
Дайте человеку цель, ради которой стоит жить, и он сможет выжить в любой ситуации.
s2004
Стаж: 12 лет 7 мес.
Сообщений: 14
Ratio: 0.351
100%
перевод отвратителен, сезон на 2012г закончен?
Bich
Стаж: 12 лет 7 мес.
Сообщений: 830
Ratio: 4.283
Поблагодарили: 1203
32.09%
Мыши плакали давились, но все равно продолжали упрямо жрать кактус.
Судя по "ненавижу" человека этим УГ регулярно пытают![/quote]
Ты сам понял что сказал то? наверное у еверов другой интеллект :лол:
Shpase
Стаж: 12 лет 6 мес.
Сообщений: 119
Ratio: 97.342
Раздал: 4.095 TB
100%
Откуда: Ростов Дон
russia.gif
и перевод неудовлетворительный и ко всему прочему этот долбаный кодек LAV....

_________________
шаг вперед,два назад...Что делать?
Lessers
Стаж: 11 лет 7 мес.
Сообщений: 33
Ratio: 28.24
100%
israel.gif
Bich писал(а): Перейти к сообщению
Ты сам понял что сказал то? наверное у еверов другой интеллект :лол:

Bich
я отлично понял что написал.Объясняю - чтобы сериал ненавидеть нужно регулярно смотреть его через силу.Если не понял про мышей -гугл в помощь.Нет,я не еврей(и даже не евер).
Еще вопросы?
Топик был перенесен из форума Игра престолов / Game of Thrones в форум Архив Сериалов

Причина переноса: раздающего не было 3 месяца.

Исправил релиз - напиши ЛС DriverV, дав ссылку на релиз.
Если нет ответа 24 часа - нажми на кнопку "Обратить внимание модераторов".
Показать сообщения:   
Начать новую тему   Ответить на тему    Торрент-трекер NNM-Club -> Архив торрентов -> Архив Сериалов и Архив Старого многосерийного кино до 90-х Часовой пояс: GMT + 3
Страницы:   Пред.  1, 2, 3, 4
Страница 4 из 4