Классический форум-трекер
canvas not supported
Нас вместе: 4 216 183

Игра престолов / Game of Thrones (2012) HDTVRip (Сезон 2, серии 01-10 из 10) (LostFilm)


Страницы:   Пред.  1, 2, 3, 4 
 
RSS
Начать новую тему   Ответить на тему    Торрент-трекер NNM-Club -> Зарубежные сериалы -> Игра престолов / Game of Thrones
Автор Сообщение
TollayaEkb ®
Стаж: 12 лет 10 мес.
Сообщений: 5732
Ratio: 1251.711
Раздал: 117.4 TB
Поблагодарили: 223100
100%
Откуда: Екб
russia.gif
Игра престолов / Game of Thrones (2012) HDTVRip (Сезон 2, серии 01-10 из 10) (LostFilm)
Год выхода: 2012
Производство: США, HBO, Television 360, Grok! Studio
Жанр: Драма, фэнтази
Продолжительность: ~ 00:55:00 мин серия

Перевод: Профессиональный многоголосый закадровый - LostFilm

Режиссер: Тимоти Ван Паттен, Брайан Кирк, Даниэль Минахан, Алан Тейлор
В ролях: Шон Бин, Питер Динклэйдж, Марк Эдди, Николай Костер-Валдау, Мишель Фэйрли, Лена Хиди, Эмилия Кларк, Иэн Глен, Эйдан Гиллен и др.

Описание:
К концу подходит время благоденствия, и лето, длившееся несколько десятилетий, угасает. Вокруг средоточия власти Семи королевств, Железного трона, зреет заговор, и в это непростое время король решает искать поддержки у друга юности Эддарда Старка (Шон Бин). В мире, где все — от короля до наемника — рвутся к власти, плетут интриги и готовы вонзить нож в спину, есть место и благородству, состраданию и любви. Между тем, никто не замечает пробуждение тьмы из легенд далеко на Севере — и лишь Стена защищает живых к югу от нее.
Между древней ледяной Стеной и пламенем навсегда ушедших из мира драконов разворачивается «Игра престолов» — долгожданная экранизация культовой саги Джорджа Р. Р. Мартина «Песнь льда и пламени».


Качество: HDTVRip[
Видео: XVID, 720x400 (16:9), 23.976 fps, ~1300 kbps, ~0.180 bit/pixel
Аудио: МР3, 192 Kbps, 2 ch, 48.0 KHz (Русский)
| Сэмпл видео | Все раздачи|
\\\Game.of.Thrones.s02.LostFilm\Game.of.Thrones.s02e01.rus.LostFilm.TV.avi
Format : AVI
Format/Info : Audio Video Interleave
File size : 579 MiB
Duration : 55mn 18s
Overall bit rate : 1 463 Kbps
Writing application : Nandub v1.0rc2
Writing library : Nandub build 1853/release
Video #0
ID : 0
Format : MPEG-4 Visual
Format profile : Simple@L3
Format settings, BVOP : No
Format settings, QPel : No
Format settings, GMC : No warppoints
Format settings, Matrix : Default (H.263)
Codec ID : XVID
Codec ID/Hint : XviD
Duration : 55mn 18s
Bit rate : 1 260 Kbps
Width : 720 pixels
Height : 400 pixels
Display aspect ratio : 16:9
Frame rate : 23.976 fps
Resolution : 24 bits
Colorimetry : 4:2:0
Scan type : Progressive
Bits/(Pixel*Frame) : 0.183
Stream size : 499 MiB (86%)
Writing library : XviD 1.2.1 (UTC 2008-12-04)
Audio #1
ID : 1
Format : MPEG Audio
Format version : Version 1
Format profile : Layer 3
Codec ID : 55
Codec ID/Hint : MP3
Duration : 55mn 18s
Bit rate mode : Variable
Bit rate : 190 Kbps
Nominal bit rate : 192 Kbps
Channel(s) : 2 channels
Sampling rate : 48.0 KHz
Resolution : 16 bits
Stream size : 75.0 MiB (13%)
Alignment : Aligned on interleaves
Interleave, duration : 24 ms (0.58 video frame)
Interleave, preload duration : 459 ms
Writing library : LAME3.97b
Encoding settings : -m j -V 4 -q 3 -lowpass 18.6 --abr 192

<<<Скриншоты>>>

Время раздачи: 24/7 - круглосуточно (до первых сидов - потом по возможности)
[NNM-Club.ru]_Game.of.Thrones.s02.LostFilm.torrent
 Торрент: Платиновая раздача  Зарегистрирован
 
Скачать


 Зарегистрирован:   07 Июн 2012 14:21:08
 Размер:   5.63 GB  (
 Рейтинг:   4.9 (Голосов: 814)
 Поблагодарили:   3109
 Проверка:   Оформление проверено модератором 07 Июн 2012 14:29:07
Как cкачать  ·  Как раздать  ·  Правильно оформить  ·  Поднять ратио!  
pozitiv739
Стаж: 11 лет 6 мес.
Сообщений: 22
Ratio: 7.07
85.9%
это нечто!
жесть просто а не фильм
Egg
Стаж: 12 лет 4 мес.
Сообщений: 2096
Ratio: 12.542
Поблагодарили: 1342
99.76%
russia.gif
mestomi писал(а): Перейти к сообщению
в этом и прелесть сериала.

Знаете, не соглашусь. Теперь, когда уже прилично прошло времени с просмотра, вспоминаются совсем не эти "прелести".

_________________
Раньше при встрече снимали шляпу. Сейчас достают из уха наушник. В знак особого уважения достают оба.
Darklight
Стаж: 16 лет 1 мес.
Сообщений: 912
Ratio: 10.31
Поблагодарили: 589
93.81%
russia.gif
Сегодня в России на канале Fox поздно ночью начнётся дублированный показ 3-го сезона ;)
schweppes1
Стаж: 10 лет 11 мес.
Сообщений: 29
Ratio: 7.055
100%
спасибо.
Показать сообщения:   
Начать новую тему   Ответить на тему    Торрент-трекер NNM-Club -> Зарубежные сериалы -> Игра престолов / Game of Thrones Часовой пояс: GMT + 3
Страницы:   Пред.  1, 2, 3, 4
Страница 4 из 4