Классический форум-трекер
canvas not supported
Нас вместе: 4 172 727

Вся президентская рать / All the President's Men (1976) [H.264] BDRip


 
 
RSS
Начать новую тему   Ответить на тему    Торрент-трекер NNM-Club -> Классика кино и Старые фильмы до 90-х -> Зарубежная Классика (HD*Rip/LQ, DVDRip, SATRip, VHSRip)
Автор Сообщение
Den4ik_Rus_66 ®
Стаж: 9 лет 6 мес.
Сообщений: 198
Ratio: 1M
Раздал: 70.6 TB
Поблагодарили: 27403
100%
Откуда: С другой планеты
Вся президентская рать / All the President's Men (1976) BDRip
«The most devastating detective story of the century!»

Русское название: Вся президентская рать
Оригинальное название: All the President's Men
Год выпуска: 1976
Страна: США
Жанр: Триллер, Драма, История
Описание фильма:
С того момента, как репортеры «Вашингтон пост» наткнулись на эту историю, мир замер в ожидании. «Уотергейт» свалил всех — президента Никсона, сенаторов, дипломатов — и окончательно развеял доверие американцев к своему правительству.
Этот фильм основан на документальных материалах журналистов Боба Вудворда и Карла Бёрнстина из газеты «Вашингтон Пост», которые раскопали факты относительно махинаций накануне выборов президента Ричарда Никсона в 1972 году и устроили «уотергейтский скандал», закончившийся позорной отставкой администрации Белого дома. Сняв свою ленту всего через три года после случившихся событий, режиссёр Алан Дж. Пакула добился поразительного эффекта: публика и даже критики воспринимали всем хорошо известную историю как захватывающий триллер, динамичный детектив. Поэтому неудивительно, что лента пользовалась большим успехом в прокате, войдя в число шестидесяти самых кассовых в 70-е годы.
Режиссер: Алан Дж. Пакула
Продюсер: Джон Бурстин, Майкл Бриттон, Уолтер Кобленц
Актеры: Дастин Хоффман, Роберт Редфорд, Джек Уорден, Мартин Болсам, Хэл Холбрук, Джейсон Робардс, Джейн Александр, Мередит Бакстер, Нед Битти, Стивен Коллинз
Продолжительность: 02:18:21
Перевод: Многоголосый закадровый
Субтитры: Отсутствуют

Дата мировой премьеры: 4 апреля 1976
Дата выхода DVD релиза: 27 апреля 2010, «Юниверсал Пикчерс Рус»
Качество видео: BDRip
Контейнер: AVI
Видеокодек: Xvid
Аудиокодек: AC-3
Видео: 704x400, 23.976 fps, ~1855 kb/s
Аудио 1: Русский, AC-3, 192 kbps, 2 канала, 16 bit, (L, R)
Аудио 2: Английский, AC-3, 192 kbps, 2 канала, 16 bit, (L, R)
Формат : AVI
Формат/Информация : Audio Video Interleave
Профиль формата : OpenDML
Размер файла : 2,18 Гбайт
Продолжительность : 2 ч. 18 м.
Общий поток : 2257 Кбит/сек
Название фильма : Вся президентская рать / All the President's Men (1976) BDRip
Режиссёр : Gellard
Жанр : триллер, драма, история
Программа кодирования : VirtualDubModRus 1.5.10.2 (build 2542/release)
Правообладатель : http://hqclub.net/
Примечание : 02.06.2012

Видео
Идентификатор : 0
Формат : MPEG-4 Visual
Профиль формата : Advanced Simple@L5
Параметр BVOP формата : 1
Параметр QPel формата : Нет
Параметр GMC формата : Без точки перехода
Параметр матрицы формата : Выборочная
Идентификатор кодека : XVID
Идентификатор кодека/Подсказка : XviD
Продолжительность : 2 ч. 18 м.
Битрейт : 1855 Кбит/сек
Ширина : 704 пикселя
Высота : 400 пикселей
Соотношение сторон : 16:9
Частота кадров : 23,976 кадра/сек
Цветовое пространство : YUV
Субдискретизация насыщенности : 4:2:0
Битовая глубина : 8 бит
Тип развёртки : Прогрессивная
Метод сжатия : С потерями
Бит/(Пиксели*Кадры) : 0.275
Размер потока : 1,79 Гбайт (82%)
Библиотека кодирования : XviD 72

Аудио #1
Идентификатор : 1
Формат : AC-3
Формат/Информация : Audio Coding 3
Расширение режима : CM (complete main)
Идентификатор кодека : 2000
Продолжительность : 2 ч. 18 м.
Вид битрейта : Постоянный
Битрейт : 192 Кбит/сек
Каналы : 2 канала
Расположение каналов : Front: L R
Частота : 48,0 КГц
Битовая глубина : 16 бит
Метод сжатия : С потерями
Размер потока : 190 Мбайт (9%)
Выравнивание : Разделение по промежуткам
Продолжительность промежутка : 42 мс. (1,00 видеокадр)
Время предзагрузки промежутка : 500 мс.

Аудио #2
Идентификатор : 2
Формат : AC-3
Формат/Информация : Audio Coding 3
Расширение режима : CM (complete main)
Идентификатор кодека : 2000
Продолжительность : 2 ч. 18 м.
Вид битрейта : Постоянный
Битрейт : 192 Кбит/сек
Каналы : 2 канала
Расположение каналов : Front: L R
Частота : 48,0 КГц
Битовая глубина : 16 бит
Метод сжатия : С потерями
Размер потока : 190 Мбайт (9%)
Выравнивание : Разделение по промежуткам
Продолжительность промежутка : 42 мс. (1,00 видеокадр)
Время предзагрузки промежутка : 500 мс.

Скриншоты:




Не забудь сказать -
Всем приятного просмотра!!!
Время раздачи: 24/7 до 5 сидов
Vsya prezidentskaya rat'.avi[nnm-club.ru].torrent
 Торрент: Платиновая раздача  Зарегистрирован
 
Скачать


Примагнититься
 Зарегистрирован:   05 Июн 2012 16:02:26
 Размер:   2.18 GB  (
 Рейтинг:   4.6 (Голосов: 32)
 Поблагодарили:   109
 Проверка:   Оформление проверено модератором 06 Июн 2012 09:58:57
Как cкачать  ·  Как раздать  ·  Правильно оформить  ·  Поднять ратио!  

_________________
Нет девушки, Нет денег, Несправедливо? Мне пофиг, Я, Раздолбай!
adria2112
Стаж: 10 лет 7 мес.
Сообщений: 229
Ratio: 11.548
100%
ukraine.gif
Честно говоря после такой аннотации я ожидал остросюжетного детектива, поиски с пристрастием, погони, выстрелы, побои...а тут пара нервных совещаний, звонков, интервью. Даже документальное кино об Уотергейте смотрится острее...Рекомендовать не буду.
Показать сообщения:   
Начать новую тему   Ответить на тему    Торрент-трекер NNM-Club -> Классика кино и Старые фильмы до 90-х -> Зарубежная Классика (HD*Rip/LQ, DVDRip, SATRip, VHSRip) Часовой пояс: GMT + 3
Страница 1 из 1