Классический форум-трекер
canvas not supported
Нас вместе: 4 226 028

Обнаженное оружие / Naked Weapon / Chek law dak gung (2002) BDRip


 
 
RSS
Начать новую тему   Ответить на тему    Торрент-трекер NNM-Club -> Зарубежное кино -> Азиатское кино (SD)
Автор Сообщение
Alex_shadow ®
Стаж: 12 лет 8 мес.
Сообщений: 1101
Ratio: 11.102
Поблагодарили: 24670
100%
nnm-club.gif
Обнаженное оружие / Naked Weapon / Chek law dak gung (2002) BDRip
«Встретив, попрощайся навсегда»
Год выпуска: 2002
Производство: Гонконг / Media Asia Films, Jing's Production
Жанр: Боевик, Триллер, Драма, Мелодрама

Описание фильма:
После того, как погибает лучший агент, таинственная женщина похищает сорок девочек с улиц и увозит на отдаленный остров. За несколько ближайших лет она воспитает новых элитных убийц. Выжившие после смертельного отбора и станут ее страшным оружием...

Режиссер: Сиу-Тунг Чинг
Актеры: Марит Торезен, Алмен Вонг Пуй-Ха, Дэниэл Ву, Кай Ян Квок, Рени Николь Роммесвинкель, Мо Ка Лаи, Огустен Агуэрреберри, Мэгги Кью, Аня, Джевел Ли

Продолжительность: 01:31:37
Качество видео: BDRip
Перевод: Многоголосый закадровый, профессиональный
Релиз-группа: HQClub




Дата мировой премьеры: 9 ноября 2002
Дата выхода DVD релиза: 4 марта 2003, «West Video»

Видео: MPEG-4 XviD, 720x400 (16:9), 24.000 fps, ~1809 Kb/s (0.262 bit/pixel)
Аудио: AC-3, 48.0 KHz, 5.1 ch, 448 Kb/s, CBR | Russian
Рейтинг MPAA: Рейтинг R - лицам до 17 лет обязательно присутствие взрослого
Image

Код:
Общее
Полное имя                               : Obnajennoe.orujie.2002.RUS.BDRip.XviD.AC3.avi
Формат                                   : AVI
Формат/Информация                        : Audio Video Interleave
Размер файла                             : 1,45 Гбайт
Продолжительность                        : 1 ч. 31 м.
Общий поток                              : 2267 Кбит/сек
Название фильма                          : Obnajennoe.orujie.2002.RUS.BDRip.XviD.AC3.-HQCLUB
Режиссёр                                 : kingsize87
Программа кодирования                    : VirtualDubMod 1.5.10.2 (build 2542/release)
Правообладатель                          : http://hqclub.net
Примечание                               : 10.01.2011

Видео
Идентификатор                            : 0
Формат                                   : MPEG-4 Visual
Профиль формата                          : Advanced Simple@L5
Параметр BVOP формата                    : 1
Параметр QPel формата                    : Нет
Параметр GMC формата                     : Без точки перехода
Параметр матрицы формата                 : Выборочная
Идентификатор кодека                     : XVID
Идентификатор кодека/Подсказка           : XviD
Продолжительность                        : 1 ч. 31 м.
Битрейт                                  : 1809 Кбит/сек
Ширина                                   : 720 пикселей
Высота                                   : 400 пикселей
Соотношение сторон                       : 16:9
Частота кадров                           : 24,000 кадра/сек
Цветовое пространство                    : YUV
Субдискретизация насыщенности            : 4:2:0
Битовая глубина                          : 8 бит
Тип развёртки                            : Прогрессивная
Метод сжатия                             : С потерями
Бит/(Пиксели*Кадры)                      : 0.262
Размер потока                            : 1,16 Гбайт (80%)
Библиотека кодирования                   : XviD 57

Аудио
Идентификатор                            : 1
Формат                                   : AC-3
Формат/Информация                        : Audio Coding 3
Расширение режима                        : CM (complete main)
Параметр Endianness формата              : Big
Идентификатор кодека                     : 2000
Продолжительность                        : 1 ч. 31 м.
Вид битрейта                             : Постоянный
Битрейт                                  : 448 Кбит/сек
Каналы                                   : 6 каналов
Расположение каналов                     : Front: L C R, Side: L R, LFE
Частота                                  : 48,0 КГц
Битовая глубина                          : 16 бит
Метод сжатия                             : С потерями
Размер потока                            : 294 Мбайт (20%)
Выравнивание                             : Разделение по промежуткам
Продолжительность промежутка             : 42  мс. (1,00 видеокадр)
Время предзагрузки промежутка            : 500  мс.
Скриншоты:


Время раздачи: С 9:00 до 18:00 (Пн-Пт) по Московскому времени.Реставрация от: Viсtоr Скорость отдачи: 1 Мбит/c. Так что большой скорости не обещаю.
[NNM-Club.ru]_Obnajennoe.orujie.2002.RUS.BDRip.XviD.AC3.avi.torrent
 Торрент: Платиновая раздача  Зарегистрирован
 
Скачать


Примагнититься
 Зарегистрирован:   02 Авг 2012 08:44:20
 Размер:   1.45 GB  (
 Рейтинг:   4.6 (Голосов: 47)
 Поблагодарили:   170
 Проверка:   Оформление проверено модератором 02 Авг 2012 09:12:07
Как cкачать  ·  Как раздать  ·  Правильно оформить  ·  Поднять ратио!  
zews80
Стаж: 11 лет 5 мес.
Сообщений: 52
Ratio: 21.64
100%
Откуда: Урюпинск
witch.png
нормальный фильмец.
Показать сообщения:   
Начать новую тему   Ответить на тему    Торрент-трекер NNM-Club -> Зарубежное кино -> Азиатское кино (SD) Часовой пояс: GMT + 3
Страница 1 из 1