Классический форум-трекер
canvas not supported
Нас вместе: 4 073 316
Loading...

Роза / Roza (2011) HDRip


 
 
RSS
Начать новую тему   Ответить на тему    Торрент-трекер NNM-Club -> Зарубежное кино -> Зарубежные Фильмы (HD*Rip/LQ, DVDRip, SATRip, VHSRip)
Автор Сообщение
ra3wa ®
Модератор Видео
RG Releasers
Uploader 100+
 
Стаж: 8 лет 10 мес.
Сообщений: 11163
Ratio: 6691,536
Раздал: 313,1 TB
Поблагодарили: 2076156
100%
Откуда: Воронеж
russia.gif
Роза / Roza (2011) HDRip
Производство: Польша
Год выпуска: 2011
Жанр: Драма, военный, история

Описание:
Лето, 1945 год, конец Второй Мировой Войны. Тадеуш, польский солдат, у которого война забрала всё, попадает на Мазуры. Находит вдову немецкого солдата, смерти которого был свидетелем. Вдова Роза, проживающая сама в большом доме, принимает Тадеуша холодно, но разрешает переночевать. Со временем, Тадеуш узнаёт больше о жизни Розы... Разминировав огород и познакомившись с другими жителями, пытается помочь поднять хозяйство, хочет покончить с войной и жить жизнью обычного человека. Защищая Розу от жестокого беспредела, Тадеуш сам становиться жертвой бандитов.

Режиссер: Войчех Смажовски
Актеры: Марцин Дорочинский, Кинга Прейс, Мариан Дзендзель, Эдвард Линде-Любашенко, Эрик Любош, Лех Дыблик, Шимон Бобровски, Анджей Конопка, Роберт Вабих

Продолжительность: 01:37:31
Перевод: Любительский одноголосый



Видеокодек: Xvid
Битрейт видео: ~1876 Кбит/с
Размер кадра: 720x304
Качество видео: HDRip
Аудиокодек: MP3, 2ch
Битрейт аудио: 128 Кбит/с
Общее
Полное имя : C:\Justlan\Роза\Roza.avi
Формат : AVI
Формат/Информация : Audio Video Interleave
Размер файла : 1,37 Гбайт
Продолжительность : 1 ч. 37 м.
Общий поток : 2013 Кбит/сек
Программа кодирования : VirtualDubMod 1.5.10.2 (build 2540/release)
Библиотека кодирования : VirtualDubMod build 2540/release

Видео
Идентификатор : 0
Формат : MPEG-4 Visual
Профиль формата : Advanced Simple@L5
Параметр BVOP формата : 2
Параметр QPel формата : Нет
Параметр GMC формата : Без точки перехода
Параметр матрицы формата : Default (MPEG)
Идентификатор кодека : XVID
Идентификатор кодека/Подсказка : XviD
Продолжительность : 1 ч. 37 м.
Битрейт : 1876 Кбит/сек
Ширина : 720 пикселей
Высота : 304 пикселя
Соотношение сторон : 2,35:1
Частота кадров : 24,000 кадра/сек
Цветовое пространство : YUV
Субдискретизация насыщенности : 4:2:0
Битовая глубина : 8 бит
Тип развёртки : Прогрессивная
Метод сжатия : С потерями
Бит/(Пиксели*Кадры) : 0.357
Размер потока : 1,28 Гбайт (93%)
Библиотека кодирования : XviD 1.2.1 (UTC 2008-12-04)

Аудио
Идентификатор : 1
Формат : MPEG Audio
Версия формата : Version 1
Профиль формата : Layer 3
Режим : Joint stereo
Расширение режима : MS Stereo
Идентификатор кодека : 55
Идентификатор кодека/Подсказка : MP3
Продолжительность : 1 ч. 37 м.
Вид битрейта : Постоянный
Битрейт : 128 Кбит/сек
Каналы : 2 канала
Частота : 44,1 КГц
Метод сжатия : С потерями
Размер потока : 89,3 Мбайт (6%)
Выравнивание : Разделение по промежуткам
Продолжительность промежутка : 42 мс. (1,00 видеокадр)
Время предзагрузки промежутка : 500 мс.
Скриншоты:

Время раздачи: Круглосуточно до 10 скачавших
[NNM-Club.ru]_Roza.avi.torrent
 Торрент: Платиновая раздача  Зарегистрирован
 
Скачать


Примагнититься
 Зарегистрирован:   05 Авг 2012 04:10:03
 Размер:   1,37 GB  (
 Рейтинг:   4,6 (Голосов: 29)
 Поблагодарили:   123
 Проверка:   Оформление проверено модератором 05 Авг 2012 04:14:09
Как cкачать  ·  Как раздать  ·  Правильно оформить  ·  Поднять ратио!  
Gurkin56
Стаж: 8 лет 11 мес.
Сообщений: 2648
Ratio: 0,93
Поблагодарили: 181088
100%
Откуда: Wonderland
Ого рейтинг. Люблю польское кино! :респект:
Poksm123
Стаж: 8 лет 11 мес.
Сообщений: 42
Ratio: 0,829
100%
Спасибо поострим, еще один интересный польский фильм

Розочка / Rozyczka (2010) HDTVRip
audza
Стаж: 12 лет 4 мес.
Сообщений: 19
Ratio: 5,822
14.63%
Откуда: uk
uk.gif
Фильм отличный!
totalit
Стаж: 7 лет
Сообщений: 169
Ratio: 3,336
100%
Откуда: Екатеринбург
russia.gif
Ещё фильм наподобие этого-"Одна безымянная женщина в Берлине".
галя2020
Стаж: 5 лет 9 мес.
Сообщений: 56
Ratio: 0,85
2.51%
Не люблю польское кино. Этот гляну
Показать сообщения:   
Начать новую тему   Ответить на тему    Торрент-трекер NNM-Club -> Зарубежное кино -> Зарубежные Фильмы (HD*Rip/LQ, DVDRip, SATRip, VHSRip) Часовой пояс: GMT + 3
Страница 1 из 1