Классический форум-трекер
canvas not supported
Нас вместе: 4 210 909

Форс-мажоры / Костюмы в законе / Suits (2012) WEB-DL 720p (Сезон 2, Серия 1-16) (NewStudio)


 
 
RSS
Начать новую тему   Ответить на тему    Торрент-трекер NNM-Club -> Зарубежные сериалы
Автор Сообщение
cokol121314 ®
Стаж: 11 лет 7 мес.
Сообщений: 219
Ratio: 100.489
Поблагодарили: 7975
100%
Откуда: Краснодар
russia.gif
Форс-мажоры / Костюмы в законе / Suits (2012) WEB-DL 720p (Сезон 2, Серия 1-16) (NewStudio)
Русское название: Форс-мажоры
Оригинальное название: Suits
Год выпуска: 2012
Жанр: Драма

Перевод: Многоголосый закадровый, профессиональный
Озвучка / Автор перевода: Константин Погодаев, Анна Тух (Бяко Рекордс) / Ptyza

Релиз группа: NewStudio



Режиссер: Кевин Брэй, Джон Скотт
Актеры: Патрик Дж. Адамс, Гэбриел Махт, Меган Маркл, Джина Торрес, Рик Хоффман

Описание фильма:
В центре сюжета замечательный, но немотивированный молодой человек, так и не закончивший учебу в колледже. У него есть все необходимые качества, чтобы стать хорошим адвокатом, кроме диплома. Но благодаря знаниям законов улицы и напористым, не всегда честным действиям его нанимает влиятельная юридическая фирма из Манхэттена.

Продолжительность: 10 x ~00:43:00
Качество видео: WEBDL 720p

Видеокодек: MPEG-4 AVC/H.264
Битрейт видео: ~4065 kbps
Размер кадра: 1280x720
Сэмпл

Аудио #1: AC3, 48,0 КHz, 2.0, 192 Kbit/s - Русский
Аудио #2: AC3, 48,0 КHz, 5.1, 384 Kbit/s - Английский
Общее
Уникальный идентификатор : 176680260982031911113431366510963377306 (0x84EB6169CEB9F37F8B0E17DFF37CC49A)
Полное имя : D:\Suits.s02.WEBDL720p\Suits.s02e02.WEBDL.720p.NewStudio.TV.mkv
Формат : Matroska
Версия формата : Version 2
Размер файла : 1,37 Гбайт
Продолжительность : 42 м.
Общий поток : 4594 Кбит/сек
Дата кодирования : UTC 2012-06-23 17:46:17
Программа кодирования : mkvmerge v5.5.0 ('Healer') built on Apr 6 2012 21:43:24
Библиотека кодирования : libebml v1.2.3 + libmatroska v1.3.0

Видео
Идентификатор : 1
Формат : AVC
Формат/Информация : Advanced Video Codec
Профиль формата : High@L3.1
Параметр CABAC формата : Нет
Параметр ReFrames формата : 2 кадра
Идентификатор кодека : V_MPEG4/ISO/AVC
Продолжительность : 42 м.
Битрейт : 3927 Кбит/сек
Ширина : 1280 пикселей
Высота : 720 пикселей
Соотношение сторон : 16:9
Частота кадров : 23,976 кадра/сек
Цветовое пространство : YUV
Субдискретизация насыщенности : 4:2:0
Битовая глубина : 8 бит
Тип развёртки : Прогрессивная
Бит/(Пиксели*Кадры) : 0.178
Размер потока : 1,17 Гбайт (85%)
Язык : English
Default : Да
Forced : Нет
Основные цвета : BT.709-5, BT.1361, IEC 61966-2-4, SMPTE RP177
Характеристики трансфера : BT.709-5, BT.1361
Коэффициенты матрицы : BT.709-5, BT.1361, IEC 61966-2-4 709, SMPTE RP177

Аудио #1
Идентификатор : 2
Формат : AC-3
Формат/Информация : Audio Coding 3
Расширение режима : CM (complete main)
Параметр Endianness формата : Big
Идентификатор кодека : A_AC3
Продолжительность : 42 м.
Вид битрейта : Постоянный
Битрейт : 192 Кбит/сек
Каналы : 2 канала
Расположение каналов : Front: L R
Частота : 48,0 КГц
Битовая глубина : 16 бит
Метод сжатия : С потерями
Размер потока : 58,8 Мбайт (4%)
Язык : Russian
Default : Да
Forced : Нет

Аудио #2
Идентификатор : 3
Формат : AC-3
Формат/Информация : Audio Coding 3
Расширение режима : CM (complete main)
Параметр Endianness формата : Big
Идентификатор кодека : A_AC3
Продолжительность : 42 м.
Вид битрейта : Постоянный
Битрейт : 384 Кбит/сек
Каналы : 6 каналов
Расположение каналов : Front: L C R, Side: L R, LFE
Частота : 48,0 КГц
Битовая глубина : 16 бит
Метод сжатия : С потерями
Размер потока : 118 Мбайт (8%)
Язык : English
Default : Нет
Forced : Нет
Скриншоты:


Все раздачи сериала!

Время раздачи: 24/7 - круглосуточно
 Торрент: Платиновая раздача  Зарегистрирован
 
Скачать


 Зарегистрирован:   26 Фев 2013 22:55:08
 Размер:   22.6 GB  (
 Рейтинг:   4.7 (Голосов: 221)
 Поблагодарили:   845
 Проверка:   Оформление проверено модератором 26 Фев 2013 23:06:28
Как cкачать  ·  Как раздать  ·  Правильно оформить  ·  Поднять ратио!  
bayer_a
Стаж: 13 лет 1 мес.
Сообщений: 823
Ratio: 3.239
Поблагодарили: 428
100%
krevedko.png
Спасибо! Уже скачал и раздаю
Zoric
Стаж: 10 лет
Сообщений: 4
Ratio: 7.218
100%
Гуд!!!
Dio3k
Стаж: 9 лет 10 мес.
Сообщений: 1
Ratio: 6.409
72.73%
cokol121314
Спасибо Вам большое!
Grinok
Стаж: 11 лет 5 мес.
Сообщений: 30
Ratio: 4.134
86.41%
poland.gif
Очень хороший сериал. Свежий, динамичный, остроумный, с тонко проработанными сценарными деталями. При этом абсуолютно без пошлятины! Слов критики пока не нашлось. Только удовольствие :)
Grinok
Стаж: 11 лет 5 мес.
Сообщений: 30
Ratio: 4.134
86.41%
poland.gif
мне все в сериале пока нравится. Интересная сюжетная линия, симпатичные герои, остроумные тексты. Смотреть совсем не скучно. Нет пошлтяны.
ИТОГ: очень качественный продукт
Radogiz
Стаж: 12 лет 9 мес.
Сообщений: 151
Ratio: 7.762
4.69%
Спасибо за сериал.
lysershock
Стаж: 9 лет
Сообщений: 3
Ratio: 2.335
0.66%
Спасибо
krolfexen
Стаж: 12 лет 1 мес.
Сообщений: 87
Ratio: 2.071
100%
В чем дело? Поиск пиров и скорость ноль...
Показать сообщения:   
Начать новую тему   Ответить на тему    Торрент-трекер NNM-Club -> Зарубежные сериалы Часовой пояс: GMT + 3
Страница 1 из 1