Классический форум-трекер
canvas not supported
Нас вместе: 4 231 714

Операция «Арго» / Argo (2012) [H.264/1080p-LQ] HDRip [Трейлер]


 
 
RSS
Начать новую тему   Ответить на тему    Торрент-трекер NNM-Club -> Архив торрентов -> Архив Видео. Кино, Театра
Автор Сообщение
esayhetg ®
Стаж: 13 лет 9 мес.
Сообщений: 526
Ratio: 312.054
Поблагодарили: 48511
100%
ussr.gif
Операция «Арго» / Argo (2012) HDRip
Русское название: Операция «Арго»
Оригинальное название: Argo
Год выпуска: 2012
Производство: США
Компания: GK Films, Smoke House, Warner Bros. Pictures
Жанр: Драма, Триллер
Перевод: Дублированный

Дата мировой премьеры: 12 октября 2012
Дата российской премьеры: 6 декабря 2012, «Каро-Премьер»
Дата выхода DVD релиза: Декабрь 2012, «CP Дистрибуция»

Режиссер: Бен Аффлек
Актеры: Бен Аффлек, Брайан Крэнстон, Джон Гудман, Клеа ДюВалл, Алан Аркин, Тэйлор Шиллинг, Майкл Кэссиди, Скут МакНейри, Майкл Паркс, Крис Мессина, Ричард Кинд, Желько Иванек, Кристофер Денэм, Мэтт Нолан, Кайл Чендлер, Тейт Донован, Рори Кокрэйн, Титус Уэлливер, Эдриэнн Барбо

Описание фильма:
4 ноября 1979 г. революция в Иране достигает своего апогея, военные штурмуют посольство США в Тегеране и берут в заложники 52 американца. Но в этом хаосе шестерым удается ускользнуть и найти прибежище в доме канадского посла. Понимая, что их обнаружение и, вероятнее всего, убийство — всего лишь вопрос времени, Тони Мендес, специалист ЦРУ по тайному вывозу людей из страны, предлагает рискованный план безопасной эвакуации. План столь невероятен, что такое бывает только в кино.



Продолжительность: 00:02:19
Качество видео: HDRip

Видеокодек: MPEG-4 AVC/H.264
Битрейт видео: 8316 Кбит/сек
Размер кадра: 1920x800
Аудиокодек: AAC, 2 канала
Битрейт аудио: 128 Кбит/сек, VBR
Общее
Формат : MPEG-4
Профиль формата : QuickTime
Идентификатор кодека : qt
Размер файла : 140 Мбайт
Продолжительность : 2 м. 19 с.
Режим общего битрейта : Переменный
Общий поток : 8436 Кбит/сек
Дата кодирования : UTC 2012-06-05 20:00:00
Дата пометки : UTC 2012-06-05 20:00:00
Программа кодирования : Lavf53.10.0

Видео
Идентификатор : 1
Формат : AVC
Формат/Информация : Advanced Video Codec
Профиль формата : Baseline@L4.0
Параметр CABAC формата : Нет
Параметр ReFrames формата : 1 кадр
Параметр GOP формата : M=1, N=12
Идентификатор кодека : avc1
Идентификатор кодека/Информация : Advanced Video Coding
Продолжительность : 2 м. 19 с.
Вид битрейта : Переменный
Битрейт : 8316 Кбит/сек
Максимальный битрейт : 9750 Кбит/сек
Ширина : 1920 пикселей
Высота : 800 пикселей
Соотношение сторон : 2,40:1
Режим частоты кадров : Постоянный
Частота кадров : 29,970 кадров/сек
Частота кадров в оригинале : 24,000 кадра/сек
Цветовое пространство : YUV
Субдискретизация насыщенности : 4:2:0
Битовая глубина : 8 бит
Тип развёртки : Прогрессивная
Бит/(Пиксели*Кадры) : 0.181
Размер потока : 138 Мбайт (98%)
Язык : English
Дата кодирования : UTC 2012-06-05 20:00:00
Дата пометки : UTC 2012-06-05 20:00:00

Аудио
Идентификатор : 2
Формат : AAC
Формат/Информация : Advanced Audio Codec
Профиль формата : LC
Идентификатор кодека : 40
Продолжительность : 2 м. 19 с.
Вид битрейта : Переменный
Битрейт : 128 Кбит/сек
Каналы : 2 канала
Расположение каналов : Front: L R
Частота : 48,0 КГц
Метод сжатия : С потерями
Размер потока : 2,12 Мбайт (2%)
Язык : English
Дата кодирования : UTC 2012-06-05 20:00:00
Дата пометки : UTC 2012-06-05 20:00:00
Скриншоты:


Время раздачи: 24/7
[NNM-Club.ru]_Argo.mp4.torrent
 Торрент: Платиновая раздача  Зарегистрирован
 
Скачать


Примагнититься
 Зарегистрирован:   10 Авг 2012 21:29:00
 Размер:   140 MB  (
 Рейтинг:   4.4 (Голосов: 13)
 Поблагодарили:   29
 Проверка:   Оформление проверено модератором 12 Авг 2012 18:21:04
Как cкачать  ·  Как раздать  ·  Правильно оформить  ·  Поднять ратио!  
Показать сообщения:   
Начать новую тему   Ответить на тему    Торрент-трекер NNM-Club -> Архив торрентов -> Архив Видео. Кино, Театра Часовой пояс: GMT + 3
Страница 1 из 1