Классический форум-трекер
canvas not supported
Нас вместе: 4 232 304

Счастливы вместе (6 сезон, 40 серия из 50) (2012) SATRip


 
 
RSS
Начать новую тему   Ответить на тему    Торрент-трекер NNM-Club -> Архив торрентов -> Архив Сериалов и Архив Старого многосерийного кино до 90-х
Автор Сообщение
ZoNoW ®
Модератор Видео
Стаж: 12 лет 11 мес.
Сообщений: 8456
Ratio: 699K
Раздал: 84.2 TB
Поблагодарили: 4011221
100%
ussr.gif
Счастливы вместе (6 сезон, 40 серия из 50) (2012) SATRip
Русское название: Счастливы вместе
Год выпуска: 2012
Выпущено: Россия, Телекомпания ТНТ
Жанр: Комедия, Семейный



Режиссер: Георгий Дронов, Шабан Муслимов, Иван Китаев
Актеры: Виктор Логинов, Наталья Бочкарева, Дарья Сагалова, Александр Якин, Татьяна Уфимцева, Павел Савинков, Алексей Секирин, Юлия Захарова

Описание фильма:
Новый сезон “Счастливы вместе”

Ситком «Счастливы вместе» уже долгое время удерживает высочайшие рейтинги. Благодаря такой зрительской любви впервые за всю историю мирового проката сериала создатели разрешили сценаристам ТНТ дописать еще 100 эпизодов, которых нет в оригинальном американском сценарии. В новых сериях ожидается множество звезд в непривычных для них ролях, неожиданные и фантастические повороты сюжета и много житейского юмора – покой Букиным только снится.

Продолжительность: 00:23:00 серия
Качество видео: SATRip

Видеокодек: XviD
Битрейт видео: 1639 kbps
Размер кадра: 704х400
Аудиокодек: MP3, 2 ch
Битрейт аудио: 192 kbps
Код:
Общее
Полное имя                               : D:\Раздачи\Schastlivi.Vmeste.39.seriya.2012.SATRip.avi
Формат                                   : AVI
Формат/Информация                        : Audio Video Interleave
Размер файла                             : 294 Мбайт
Продолжительность                        : 22 м.
Общий поток                              : 1841 Кбит/сек
Программа кодирования                    : VirtualDubModRus 1.5.10.2 (build 2542/release)
Библиотека кодирования                   : VirtualDubMod build 2542/release

Видео
Идентификатор                            : 0
Формат                                   : MPEG-4 Visual
Профиль формата                          : Advanced Simple@L5
Параметр BVOP формата                    : 1
Параметр QPel формата                    : Нет
Параметр GMC формата                     : Без точки перехода
Параметр матрицы формата                 : Default (H.263)
Идентификатор кодека                     : XVID
Идентификатор кодека/Подсказка           : XviD
Продолжительность                        : 22 м.
Битрейт                                  : 1639 Кбит/сек
Ширина                                   : 704 пикселя
Высота                                   : 400 пикселей
Соотношение сторон                       : 16:9
Частота кадров                           : 25,000 кадров/сек
Цветовое пространство                    : YUV
Субдискретизация насыщенности            : 4:2:0
Битовая глубина                          : 8 бит
Тип развёртки                            : Прогрессивная
Метод сжатия                             : С потерями
Бит/(Пиксели*Кадры)                      : 0.233
Размер потока                            : 262 Мбайт (89%)
Библиотека кодирования                   : XviD 1.2.1 (UTC 2008-12-04)

Аудио
Идентификатор                            : 1
Формат                                   : MPEG Audio
Версия формата                           : Version 1
Профиль формата                          : Layer 3
Режим                                    : Joint stereo
Расширение режима                        : MS Stereo
Идентификатор кодека                     : 55
Идентификатор кодека/Подсказка           : MP3
Продолжительность                        : 22 м.
Вид битрейта                             : Постоянный
Битрейт                                  : 192 Кбит/сек
Каналы                                   : 2 канала
Частота                                  : 48,0 КГц
Метод сжатия                             : С потерями
Размер потока                            : 30,7 Мбайт (10%)
Выравнивание                             : Соединение по промежуткам
Продолжительность промежутка             : 40  мс. (1,00 видеокадр)
Время предзагрузки промежутка            : 504  мс.
Библиотека кодирования                   : LAME3.98r
Настройки программы                      : -m j -V 4 -q 2 -lowpass 18.6 -b 192


Скриншоты:


Приятного просмотра
и не забываем говорить СПАСИБО...

Все части сериала на NNM-Club

Время раздачи: 24/7,
до 5 скачавших.
[NNM-Club.ru]_Schastlivi.Vmeste.39.seriya.2012.SATRip.avi.torrent
 Торрент: Золотая раздача  Зарегистрирован
 
Зарегистрируйтесь и скачайте торрент!
11.7 KB

 Зарегистрирован:   12 Сен 2012 22:05:54
 Размер:   294 MB  (
 Рейтинг:   3.3 (Голосов: 14)
 Поблагодарили:   31
 Проверка:   Оформление проверено модератором 13 Сен 2012 08:27:51
•••
Поддержите мой проект и выход новых релизов:

•••
Как cкачать  ·  Как раздать  ·  Правильно оформить  ·  Поднять ратио!  
Igorh75
Стаж: 13 лет 8 мес.
Сообщений: 884
Ratio: 34.323
Поблагодарили: 24
100%
ussr.gif
:задумался:
thorneus
Стаж: 13 лет 2 мес.
Сообщений: 32
Ratio: 15.776
Раздал: 12.82 TB
100%
china.gif
причем это 40 серия, ибо 39 - другая

_________________
валера техновикинг
Intel Core i5-750 4.0GHz, nVidia GTX980-3-way SLI, 16 Gb Corsair DDR3 2133MHz
Ярослав 11.
Стаж: 13 лет
Сообщений: 1335
Ratio: 3.691
Поблагодарили: 5646
100%
Откуда: Кропивницький
ukraine.gif
ZoNoW ты хот обьясни какая ето серия
на раздаче 40 имя файла 39
TLY
Стаж: 13 лет 10 мес.
Сообщений: 61
Ratio: 27.121
10%
Откуда: Нижний Новгород
russia.gif
Ну хорошо-40серия.
А куда подевались 36,37,39 ? :задумался:
------------------------------
Вы тут,как бы основной выкладывавальщик этого сериала =)
Показать сообщения:   
Начать новую тему   Ответить на тему    Торрент-трекер NNM-Club -> Архив торрентов -> Архив Сериалов и Архив Старого многосерийного кино до 90-х Часовой пояс: GMT + 3
Страница 1 из 1