Классический форум-трекер
canvas not supported
Нас вместе: 4 178 403

Однажды в медовый месяц / Once Upon a Honeymoon (1942) DVDRip


 
 
RSS
Начать новую тему   Ответить на тему    Торрент-трекер NNM-Club -> Архив торрентов -> Архив Классики и Старого кино
Автор Сообщение
Garryson ®
Сталкер
Uploader 200+
Стаж: 13 лет 6 мес.
Сообщений: 5022
Ratio: 852.084
Поблагодарили: 166417
100%
Откуда: DFO
Однажды в медовый месяц / Once Upon a Honeymoon (1942) DVDRip
Русское название: Однажды в медовый месяц
Оригинальное название: Once Upon a Honeymoon
Год выпуска: 1942
Страна: США / RKO Radio Pictures Inc.
Жанр: мелодрама, комедия, детектив
Перевод: Авторский (одноголосый закадровый) / Сергей Кузнецов
Субтитры: нет

Дата мировой премьеры: 2 ноября 1942

Режиссер: Лео МакКери
Актеры: Кэри Грант, Джинджер Роджерс, Уолтер Слезак, Альберт Деккер, Альберт Бассерманн, Ферике Борос, Гарри Шэннон, Наташа Лайтесс, Фред Олдрич, Фрэнк Альтен, Джон Баннер, Феликс Баш, Уолтер Байрон, Ганс Конрид, Бесс Флауэрс, Арно Фрэй


Описание фильма:
Вена, 1939 год. Кэти О`Хара — стриптизерша из Нью-Йорка, выдающая себя за представительницу светского общества из Филадельфии, собирается замуж за австрийского барона Фон Любера. Радио-репортер Пэт О`Тул хочет использовать этот шанс для того, чтобы узнать как можно больше о бароне, который подозревается в связях с нацистами. Маршрут свадебного путешествия странным образом проходит по странам, в которые впоследствии вторгается Гитлер. Следуя за парой молодоженов в их медовом месяце по всей Европе, О`Тул пытается открыть глаза Кэти на деятельность ее мужа, постепенно влюбляясь в героиню.….
Продолжительность: 01:54:59
Качество видео: DVDRip

Видеокодек: XviD
Битрейт видео: ~1504 kbps avg
Размер кадра: 640x480 (4:3), 0.204 bit/pixel
Аудиокодек: AC3
Аудио:
Аудио 1: Русский, 48.0 kHz, AC3, 2 ch ~192 Kbps avg / Авторский (одноголосый закадровый) / Сергей Кузнецов
Аудио 2: Английский , 48.0 kHz, AC3, 2 ch ~192 Kbps avg
Оскар, 1943 год
Номинации (1):
Лучший звук
Формат : AVI
Формат/Информация : Audio Video Interleave
Размер файла : 1,53 Гбайт
Продолжительность : 1 ч. 54 м.
Общий поток : 1902 Кбит/сек
Название фильма : Odnazhdy.v.medovyj.mesjac.1942.XviD.DVDRip.egoleshik
Программа кодирования : VirtualDubMod 1.5.10.2 (build 2542/release)
Формат оригинала/Имя : Movie
Правообладатель : Rip by egoleshik
Примечание : Thanks rureks

Видео
Идентификатор : 0
Формат : MPEG-4 Visual
Профиль формата : Advanced Simple@L5
Параметр BVOP формата : 2
Параметр QPel формата : Нет
Параметр GMC формата : Без точки перехода
Параметр матрицы формата : Default (MPEG)
Идентификатор кодека : XVID
Идентификатор кодека/Подсказка : XviD
Продолжительность : 1 ч. 54 м.
Битрейт : 1504 Кбит/сек
Ширина : 640 пикселей
Высота : 480 пикселей
Соотношение сторон : 4:3
Частота кадров : 23,976 кадра/сек
Цветовое пространство : YUV
Субдискретизация насыщенности : 4:2:0
Битовая глубина : 8 бит
Тип развёртки : Прогрессивная
Метод сжатия : С потерями
Бит/(Пиксели*Кадры) : 0.204
Размер потока : 1,21 Гбайт (79%)
Библиотека кодирования : XviD 1.2.1 (UTC 2008-12-04)

Аудио #1
Идентификатор : 1
Формат : AC-3
Формат/Информация : Audio Coding 3
Расширение режима : CM (complete main)
Параметр Endianness формата : Big
Идентификатор кодека : 2000
Продолжительность : 1 ч. 54 м.
Вид битрейта : Постоянный
Битрейт : 192 Кбит/сек
Каналы : 2 канала
Расположение каналов : Front: L R
Частота : 48,0 КГц
Битовая глубина : 16 бит
Метод сжатия : С потерями
Размер потока : 158 Мбайт (10%)
Выравнивание : Разделение по промежуткам
Продолжительность промежутка : 42 мс. (1,00 видеокадр)
Время предзагрузки промежутка : 500 мс.

Аудио #2
Идентификатор : 2
Формат : AC-3
Формат/Информация : Audio Coding 3
Расширение режима : CM (complete main)
Параметр Endianness формата : Big
Идентификатор кодека : 2000
Продолжительность : 1 ч. 54 м.
Вид битрейта : Постоянный
Битрейт : 192 Кбит/сек
Каналы : 2 канала
Расположение каналов : Front: L R
Частота : 48,0 КГц
Битовая глубина : 16 бит
Метод сжатия : С потерями
Размер потока : 158 Мбайт (10%)
Выравнивание : Разделение по промежуткам
Продолжительность промежутка : 42 мс. (1,00 видеокадр)
Время предзагрузки промежутка : 500 мс.
Скриншоты:





24/7
[NNM-Club.ru]_Once.Upon.a.Honeymoon.1942.DVDRip.torrent
 Торрент: Платиновая раздача  Зарегистрирован
 
Скачать


Примагнититься
 Зарегистрирован:   22 Сен 2012 11:23:14
 Размер:   1.53 GB  (
 Рейтинг:   4.3 (Голосов: 18)
 Поблагодарили:   35
 Проверка:   Оформление проверено модератором 22 Сен 2012 11:24:04
Как cкачать  ·  Как раздать  ·  Правильно оформить  ·  Поднять ратио!  
Топик был перенесен из форума Зарубежная Классика (HD*Rip/LQ, DVDRip, SATRip, VHSRip) в форум Архив Классики и Старого кино / Артхаус

Причина переноса: Последний раз раздающий был замечен более 6 месяцев назад.

Исправил релиз - напиши ЛС FREEDONOR, дав ссылку на релиз.
Если нет ответа 24 часа - нажми на кнопку "Обратить внимание модераторов".
Показать сообщения:   
Начать новую тему   Ответить на тему    Торрент-трекер NNM-Club -> Архив торрентов -> Архив Классики и Старого кино Часовой пояс: GMT + 3
Страница 1 из 1