Классический форум-трекер
canvas not supported
Нас вместе: 4 205 974

Гарольд и Кумар уходят в отрыв / Harold & Kumar Go to White Castle (2004) BDRip


 
 
RSS
Начать новую тему   Ответить на тему    Торрент-трекер NNM-Club -> Зарубежное кино -> Зарубежные Фильмы (SD)
Автор Сообщение
eXPpectant ®
Стаж: 12 лет 10 мес.
Сообщений: 2457
Ratio: 1628.264
Раздал: 18.08 TB
Поблагодарили: 305978
100%
Откуда: Нижний Тагил + Дмитров
russia.gif
Гарольд и Кумар уходят в отрыв / Harold & Kumar Go to White Castle (2004) BDRip
Страна: США, Канада, Германия
Жанр: Комедия, Приключения

Описание:
То, что Гарольд и Кумар разные, видно сразу, но при этом они как-то уживаются в одной квартире! И вот однажды, выкурив по сигаретке и забыв невзгоды, друзья решают оттянуться гамбургерами...
Свою поездку они запомнили навсегда! Взяв старт, приятели окунаются в такой круговорот событий, что не успевают осознать происходящее! Ночная чехарда не оставляет им времени на выбор

Режиссер: Дэнни Лейнер
Актеры: Джон Чо, Итэн Эмбри, Роберт Тинклер, Фред Уиллард, Кэл Пенн, Стив Браун, Дэн Бочарт, Паула Гарсес, Майк Шир, Кристофер Томпсон, Дэвид Крамхолц, Эдди Кэй Томас

Продолжительность: 01:28:23
Перевод: Дублированный / Профессиональный (многоголосый, закадровый) / Авторский [А.Карповский]





Дата мировой премьеры: 20 мая 2004
Дата российской премьеры: 23 сентября 2004, «West»

Видеокодек: Xvid
Битрейт видео: ~2096 kb/s
Размер кадра: 720x384
Качество видео: BDRip
Аудио:
Аудио#1:
AC3; 384 kb/s; CBR; 6 ch; 16 bit - Дублированный
Аудио#2: AC3; 384 kb/s; CBR; 6 ch; 16 bit - Профессиональный (многоголосый, закадровый)
Аудио#3: AC3; 192 kb/s; CBR; 2 ch; 16 bit - [А.Карповский]
Аудио#4: AC3; 448 kb/s; CBR; 6 ch; 16 bit - Английский
...из книги «3500 кинорецензий»

Молодёжная комедия

Два совсем молодых сценариста (Джону Хёрвицу в начале съёмок было 25 лет, а Хейдену Шлоссбергу — 24 года) придумали явно незамысловатую историю про двух приятелей: Хэролда Ли, корейца по происхождению, и Кумара Пателя, чьи родители — индийцы. Хэролд даже работает в престижном инвестиционном банке, а вот Кумар никак не желает поддаться уговорам отца и стать врачом, хотя (как потом выяснится) имеет несомненный талант в области медицины. Но оба продолжают вести себя как «отвязные» подростки, куря марихуану и совершая беспечные поступки, особенно в том случае, когда друзьям взбрело в голову на ночь глядя отправиться за гамбургерами в закусочную «Белый замок», чью завлекательную рекламу они увидели по телевизору.

Разумеется, в молодёжной комедии режиссёра Дэнни Лайнера (ранее пользовалась успехом его схожая по жанру лента «Где моя тачка, чувак?») немало приколов, рассчитанных на абсолютно невзыскательный вкус юной аудитории, которая со смехом встречает «шуточки ниже пояса» (порой они оказываются вообще «ниже плинтуса», как теперь модно выражаться). А взрослых — в первую очередь родителей — не может не возмущать легкомысленное и даже рекламное по своей сути представление на экране тех «улётов», что посещают обкурившихся парней (наиболее бурно реагирует молодая публика на фантазии Кумара относительно своей «счастливой семейной жизни» с большой упаковкой «травки»). Однако и для тех, кто давно уже вышел из возраста «чуваков», припасены хохмы насчёт осуществления «американской мечты», демонстративного несоблюдения политкорректности по отношению к людям других рас и национальностей или же абсолютно безмозглых действий полицейских, одного из которых зовут Паламбо (видимо, с намёком на телевизионного сыщика Коламбо).

Но особым остроумием эта картина всё равно не блещет, а в американском прокате прошла, в принципе, скромно — хоть и собрала вдвое больше, нежели стоила. Если же принять во внимание, что на рекламную раскрутку фильма было дополнительно потрачено $20 млн., то конечный результат можно счесть разочаровывающим. Никакого «отрыва», обозначенного в нашей версии оригинального названия, так и не случилось. Тем не менее, некоторые отечественные издания умудрились поставить ленте Лайнера высокие оценки. Тоже обкурились, что ли?!

2004
Общее
Полное имя : D:\Торрент раздача\Harold.&.Kumar.Go.to.White.Castle.2004.BDRip.avi
Формат : AVI
Формат/Информация : Audio Video Interleave
Профиль формата : OpenDML
Размер файла : 2,18 Гбайт
Продолжительность : 1 ч. 28 м.
Общий поток : 3534 Кбит/сек
Название фильма : Гарольд и Кумар уходят в отрыв / Harold & Kumar Go to White Castle [HQRip]
Жанр : Action/Comedy
Программа кодирования : VirtualDubMod 1.5.10.2 (build 2540/release)
Формат оригинала/Имя : Movie

Видео
Идентификатор : 0
Формат : MPEG-4 Visual
Профиль формата : Advanced Simple@L5
Параметр BVOP формата : 2
Параметр QPel формата : Нет
Параметр GMC формата : Без точки перехода
Параметр матрицы формата : Default (H.263)
Идентификатор кодека : XVID
Идентификатор кодека/Подсказка : XviD
Продолжительность : 1 ч. 28 м.
Битрейт : 2096 Кбит/сек
Ширина : 720 пикселей
Высота : 384 пикселя
Соотношение сторон : 1,85:1
Частота кадров : 23,976 кадра/сек
Цветовое пространство : YUV
Субдискретизация насыщенности : 4:2:0
Битовая глубина : 8 бит
Тип развёртки : Прогрессивная
Метод сжатия : С потерями
Бит/(Пиксели*Кадры) : 0.316
Размер потока : 1,29 Гбайт (59%)
Библиотека кодирования : XviD 1.2.1 (UTC 2008-12-04)

Аудио #1
Идентификатор : 1
Формат : AC-3
Формат/Информация : Audio Coding 3
Расширение режима : CM (complete main)
Параметр Endianness формата : Big
Идентификатор кодека : 2000
Продолжительность : 1 ч. 28 м.
Вид битрейта : Постоянный
Битрейт : 384 Кбит/сек
Каналы : 6 каналов
Расположение каналов : Front: L C R, Side: L R, LFE
Частота : 48,0 КГц
Битовая глубина : 16 бит
Метод сжатия : С потерями
Размер потока : 243 Мбайт (11%)
Выравнивание : Разделение по промежуткам
Продолжительность промежутка : 42 мс. (1,00 видеокадр)
Время предзагрузки промежутка : 500 мс.

Аудио #2
Идентификатор : 2
Формат : AC-3
Формат/Информация : Audio Coding 3
Расширение режима : CM (complete main)
Параметр Endianness формата : Big
Идентификатор кодека : 2000
Продолжительность : 1 ч. 28 м.
Вид битрейта : Постоянный
Битрейт : 384 Кбит/сек
Каналы : 6 каналов
Расположение каналов : Front: L C R, Side: L R, LFE
Частота : 48,0 КГц
Битовая глубина : 16 бит
Метод сжатия : С потерями
Размер потока : 243 Мбайт (11%)
Выравнивание : Разделение по промежуткам
Продолжительность промежутка : 42 мс. (1,00 видеокадр)
Время предзагрузки промежутка : 500 мс.

Аудио #3
Идентификатор : 3
Формат : AC-3
Формат/Информация : Audio Coding 3
Расширение режима : CM (complete main)
Параметр Endianness формата : Big
Идентификатор кодека : 2000
Продолжительность : 1 ч. 28 м.
Вид битрейта : Постоянный
Битрейт : 192 Кбит/сек
Каналы : 2 канала
Расположение каналов : Front: L R
Частота : 48,0 КГц
Битовая глубина : 16 бит
Метод сжатия : С потерями
Размер потока : 121 Мбайт (5%)
Выравнивание : Разделение по промежуткам
Продолжительность промежутка : 42 мс. (1,00 видеокадр)
Время предзагрузки промежутка : 500 мс.

Аудио #4
Идентификатор : 4
Формат : AC-3
Формат/Информация : Audio Coding 3
Расширение режима : CM (complete main)
Параметр Endianness формата : Big
Идентификатор кодека : 2000
Продолжительность : 1 ч. 28 м.
Вид битрейта : Постоянный
Битрейт : 448 Кбит/сек
Каналы : 6 каналов
Расположение каналов : Front: L C R, Side: L R, LFE
Частота : 48,0 КГц
Битовая глубина : 16 бит
Метод сжатия : С потерями
Размер потока : 283 Мбайт (13%)
Выравнивание : Разделение по промежуткам
Продолжительность промежутка : 42 мс. (1,00 видеокадр)
Время предзагрузки промежутка : 500 мс.
Скриншоты:

Время раздачи: 24/7
[NNM-Club.ru]_Garol'd_i_Kumar_uhodyat_v_otryiv.torrent
 Торрент: Платиновая раздача  Зарегистрирован
 
Скачать


Примагнититься
 Зарегистрирован:   30 Сен 2012 18:44:23
 Размер:   2.18 GB  (
 Рейтинг:   4.8 (Голосов: 34)
 Поблагодарили:   122
 Проверка:   Оформление проверено модератором 01 Окт 2012 20:54:34
Как cкачать  ·  Как раздать  ·  Правильно оформить  ·  Поднять ратио!  
Каролина888
 
Стаж: 9 лет 4 мес.
Сообщений: 74
Ratio: 11.924
Раздал: 7.28 TB
100%
Фильм для тех, кому нравится легкий юмор, для тех, кто хочет расслабиться, не напрягать мозги..
PALANTEN
Стаж: 9 лет
Сообщений: 99
Ratio: 101.643
100%
Откуда: Родом из СССР
ussr.gif
буду стоять на раздаче. Кому надо качайте. Комедия годная, ненапряжная.
Показать сообщения:   
Начать новую тему   Ответить на тему    Торрент-трекер NNM-Club -> Зарубежное кино -> Зарубежные Фильмы (SD) Часовой пояс: GMT + 3
Страница 1 из 1