Классический форум-трекер
canvas not supported
Нас вместе: 4 211 003

Призрак Красной реки / An American Haunting (2005) [1080p] BDRemux


 
 
RSS
Начать новую тему   Ответить на тему    Торрент-трекер NNM-Club -> Архив торрентов -> Архив Видео
Автор Сообщение
ElektrAа ®
Uploader 500+
Стаж: 11 лет 10 мес.
Сообщений: 2786
Ratio: 3823.982
Раздал: 508.4 TB
Поблагодарили: 391857
100%
Откуда: Южная столица
ukraine.gif
Призрак Красной реки / An American Haunting (2005) BDRemux

Русское название: Призрак Красной реки
Оригинальное название: An American Haunting
Страна: Великобритания, Канада, Румыния, США
Год выпуска: 2005
Жанр: Ужасы, Триллер, Детектив

Описание фильма:
«Призрак Красной Реки» - история, основанная на реальных событиях, происходивших в США (штат Теннеси) в 19 веке. Об истории семьи Беллов, подвергшейся нападениям таинственного духа, написано 35 книг. Все они рассказывают о том, как на добропорядочную и уважаемую семью Беллов обрушилось проклятье. С какого-то момента в их дом стал приходить призрак, который добивался смерти одного из членов семьи.

Режиссер: Кортни Соломон / Courtney Solomon
Актеры: Дональд Сазерленд (John Bell), Сисси Спейсек (Lucy Bell), Джеймс Д`Арси (Richard Powell), Рейчел Херд-Вуд (Betsy Bell / Entity Voice), Мэттью Марш (James Johnston), Том Фелл (John Bell Jr.), Зои Торн (Theny Thorn), Гей Браун (Kathe Batts), Сэм Александр (Joshua Gardner), Микель Браун (Chloe), Вернон Добчефф

Продолжительность: 01:30:15
Перевод: Профессиональный |полное дублирование| + Авторский |одноголосый закадровый| Антон Карповский
Оригинальная аудиодорожка: Английская
Субтитры: Русские



Рейтинг PG-13 - Детям до 13 лет просмотр не желателен

Видеокодек: MPEG-4 AVC/H.264
Битрейт видео: ~24.9 Мбит/сек
Размер кадра: 1920x1080p
Качество видео: BDRemux
Аудиокодек: AC3+ DTS-HD MA

Аудио 1: Русский / AC3 / 384 Кбит/сек / 5.1 / 48 кГц / 16-бит (Dub)
Аудио 2: Русский / AC3 / 192 Кбит/сек / 2.0 / 48 кГц / 16-бит (AVO Антон Карповский)
Аудио 3: English / DTS-HD Master Audio / 3223 Кбит/сек / 5.1 / 48 кГц / 24-бит (DTS Core: 5.1 / 48 кГц / 1510 Кбит/сек / 24-бит) (Оригинал)


Скриншоты:
General
Complete name : O:\Призрак Красной реки (An American Haunting).mkv
Format : Matroska
File size : 18.5 GiB
Duration : 1h 30mn
Overall bit rate : 29.3 Mbps
Encoded date : UTC 2012-11-17 11:59:48
Writing application : mkvmerge v5.8.0 ('No Sleep / Pillow') built on Sep 2 2012 15:37:04
Writing library : libebml v1.2.3 + libmatroska v1.3.0

Video
ID : 1
Format : AVC
Format/Info : Advanced Video Codec
Format profile : High@L4.1
Format settings, CABAC : Yes
Format settings, ReFrames : 4 frames
Muxing mode : Container profile=Unknown@4.1
Codec ID : V_MPEG4/ISO/AVC
Duration : 1h 30mn
Width : 1 920 pixels
Height : 1 080 pixels
Display aspect ratio : 16:9
Frame rate : 23.976 fps
Standard : NTSC
Resolution : 8 bits
Colorimetry : 4:2:0
Scan type : Progressive
Color primaries : BT.709-5, BT.1361, IEC 61966-2-4, SMPTE RP177
Transfer characteristics : BT.709-5, BT.1361
Matrix coefficients : BT.709-5, BT.1361, IEC 61966-2-4 709, SMPTE RP177

Audio #1
ID : 2
Format : AC-3
Format/Info : Audio Coding 3
Codec ID : A_AC3
Duration : 1h 30mn
Bit rate mode : Constant
Bit rate : 384 Kbps
Channel(s) : 6 channels
Channel positions : Front: L C R, Surround: L R, LFE
Sampling rate : 48.0 KHz
Stream size : 248 MiB (1%)
Title : Профессиональный (полное дублирование)
Language : Russian

Audio #2
ID : 3
Format : AC-3
Format/Info : Audio Coding 3
Codec ID : A_AC3
Duration : 1h 30mn
Bit rate mode : Constant
Bit rate : 192 Kbps
Channel(s) : 2 channels
Channel positions : L R
Sampling rate : 48.0 KHz
Stream size : 124 MiB (1%)
Title : Авторский (одноголосый закадровый) Антон Карповский
Language : Russian

Audio #3
ID : 4
Format : DTS
Format/Info : Digital Theater Systems
Format profile : MA
Codec ID : A_DTS
Duration : 1h 30mn
Bit rate mode : Variable
Channel(s) : 6 channels
Channel positions : Front: L C R, Surround: L R, LFE
Sampling rate : 48.0 KHz
Resolution : 24 bits
Title : Оригинал

Text
ID : 5
Format : UTF-8
Codec ID : S_TEXT/UTF8
Codec ID/Info : UTF-8 Plain Text
Language : Russian
Время раздачи: 24/7 - круглосуточно

Спасибо - это прекрасное словo, но если Вам реально хочется меня отблагодарить, оставайтесь на раздаче как можно дольше, и тогда наша благодарность будет обоюдной!!!!

 Торрент: Платиновая раздача  Зарегистрирован
 
Скачать


 Зарегистрирован:   24 Ноя 2012 14:04:08
 Размер:   18.5 GB  (
 Рейтинг:   4.7 (Голосов: 30)
 Поблагодарили:   85
 Проверка:   Оформление проверено модератором 24 Ноя 2012 21:51:33
Как cкачать  ·  Как раздать  ·  Правильно оформить  ·  Поднять ратио!  
flanger17
Стаж: 10 лет 5 мес.
Сообщений: 87
Ratio: 314.32
100%
Откуда: СПБ
russia.gif
Странно что такой низкий рейтинг. Кино супер.
ElektrAа ®
Uploader 500+
Стаж: 11 лет 10 мес.
Сообщений: 2786
Ratio: 3823.982
Раздал: 508.4 TB
Поблагодарили: 391857
100%
Откуда: Южная столица
ukraine.gif
flanger17 писал(а): Перейти к сообщению
Странно что такой низкий рейтинг. Кино супер.


Согласна!!!! Один из лучших мистический трилеров, смотрела сама неоднократно, фильм заслуживает явно больше!!!
silitra666
Стаж: 13 лет 1 мес.
Сообщений: 8
Ratio: 3.436
21.8%
Бред!
dantezzz
Стаж: 11 лет 4 мес.
Сообщений: 303
Ratio: 14.899
Поблагодарили: 187
100%
Откуда: Nezhin
ukraine.gif
ElektrAа Спасибо, фильм отличный, даже не ожижал, почитал рецензии, отзывы не сильно радосные, после просмотра убедился в обратном, не стоит полагатся на чьи то вкусы нужно посмотреть самому, что бы дать обьективную оценку 8/10
Топик был перенесен из форума Зарубежные Фильмы (HD) в форум Архив Видео


batonchik
Показать сообщения:   
Начать новую тему   Ответить на тему    Торрент-трекер NNM-Club -> Архив торрентов -> Архив Видео Часовой пояс: GMT + 3
Страница 1 из 1