Классический форум-трекер
canvas not supported
Нас вместе: 4 171 758

Грань / За гранью / Fringe [5 сезон полный] (2012) WEB-DLRip [1080p] (LostFilm)


Страницы:   Пред.  1, 2 
 
RSS
Начать новую тему   Ответить на тему    Торрент-трекер NNM-Club -> Зарубежные сериалы -> Грань / Fringe
Автор Сообщение
Bert19 ®
Стаж: 10 лет 7 мес.
Сообщений: 309
Ratio: 91.791
Раздал: 26.28 TB
Поблагодарили: 6320
94.15%
Откуда: Обнинск
russia.gif
За гранью (Грань) / Fringe (2012) WEB-DLRip [1080p] [5 сезон полный] [Rus+En+Ukr]
Русское название: За гранью (Грань)
Оригинальное название: Fringe
Год выпуска: 2012
Жанр: Фантастика, Триллер, Детектив

Перевод: Многоголосый закадровый, профессиональный
Язык: Rus+En+Ukr
Озвучка / Автор перевода:
Русский - [LostFilm]
Украинский - [UATEAM]
Вид субтитров: Вшитые отключаемые
Язык субтитров: Английские



Режиссер: Джо Чаппелль, Дэвид Стрейтон, Том Яцко, ...
Актеры: Анна Торв, Джошуа Джексон, Джон Ноубл, Лэнс Реддик, Блэр Браун, Джесика Николь, Майкл Серверис, Кирк Асеведо, Сет Гейбл, Райан МакДональд

Описание фильма:
Оливия Данэм - молодой агент ФБР - вынуждена работать со штатом ученых, чтобы расследовать необъяснимые феномены. Среди работников этого секретного отдела Национальной Безопасности: доктор Уолтер Бишоп - что-то среднее между Эйнштейном и Франкенштейном, его сын с IQ около 200, так и не закончивший школу, с карточными долгами и Нина Шарп, проработавшая на тайную организацию 16 лет. Особый агент НБ Филип Бройлс возглавляет отдел, призванный расследовать паранормальные явления.
Пятый сезон начинается с событий, которыми закончилась серия Транзитные письма. Действие происходит в будущем, в 2036 году, когда власть на Земле захватили наблюдатели. Команда «За гранью» освобождена из янтаря, в котором герои провели 20 лет, и теперь возглавляет сопротивление. Питер наконец-то встречается со своей уже повзрослевшей дочерью Эттой, и они вместе начинают искать свою Оливию и спасать мир от наблюдателей.
Продолжительность: 13 х ~00:43:00
Качество видео: WEB-DLRip 1080p
Сэмпл: Скачать

Видеокодек: MPEG-4 AVC/H.264
Битрейт видео: ~5000 kbps avg
Размер кадра: 1920x1080 at 23.976 fps
Аудиокодек: AC3
Битрейт аудио: ~384.00 kbps avg
General
Unique ID : 206872699338164634654786803458753744707 (0x9BA23B8DD8C1586980F8B4C4E8C8CF43)
Complete name : H:\!series\z_screen\Fringe.S05E01.1080p.WEB-DL.Rus.Ukr.Eng.HDCLUB.mkv
Format : Matroska
Format version : Version 2
File size : 1.89 GiB
Duration : 43mn 24s
Overall bit rate : 6 248 Kbps
Movie name : Fringe [Season 5] (2012)
Encoded date : UTC 2012-10-16 19:43:32
Writing application : mkvmerge v5.8.0 ('No Sleep / Pillow') built on Sep 2 2012 15:37:04
Writing library : libebml v1.2.3 + libmatroska v1.3.0

Video
ID : 1
Format : AVC
Format/Info : Advanced Video Codec
Format profile : High@L4.0
Format settings, CABAC : Yes
Format settings, ReFrames : 4 frames
Codec ID : V_MPEG4/ISO/AVC
Bit rate : 4 971 Kbps
Width : 1 920 pixels
Height : 1 080 pixels
Display aspect ratio : 16:9
Frame rate mode : Variable
Color space : YUV
Chroma subsampling : 4:2:0
Bit depth : 8 bits
Scan type : Progressive
Title : Fringe 5x01: Transilience Thought Unifier Model-11 / Мгновенный Объединитель Мыслей Модель-11
Language : English
Default : Yes
Forced : Yes
Color primaries : BT.709
Transfer characteristics : BT.709
Matrix coefficients : BT.709

Audio #1
ID : 2
Format : AC-3
Format/Info : Audio Coding 3
Mode extension : CM (complete main)
Format settings, Endianness : Big
Codec ID : A_AC3
Duration : 43mn 24s
Bit rate mode : Constant
Bit rate : 384 Kbps
Channel(s) : 6 channels
Channel positions : Front: L C R, Side: L R, LFE
Sampling rate : 48.0 KHz
Bit depth : 16 bits
Compression mode : Lossy
Stream size : 119 MiB (6%)
Title : LostFilm
Language : Russian
Default : Yes
Forced : No

Audio #2
ID : 3
Format : AC-3
Format/Info : Audio Coding 3
Mode extension : CM (complete main)
Format settings, Endianness : Big
Codec ID : A_AC3
Duration : 43mn 24s
Bit rate mode : Constant
Bit rate : 384 Kbps
Channel(s) : 6 channels
Channel positions : Front: L C R, Side: L R, LFE
Sampling rate : 48.0 KHz
Bit depth : 16 bits
Compression mode : Lossy
Stream size : 119 MiB (6%)
Title : UATEAM
Language : Ukrainian
Default : No
Forced : No

Audio #3
ID : 4
Format : AC-3
Format/Info : Audio Coding 3
Mode extension : CM (complete main)
Format settings, Endianness : Big
Codec ID : A_AC3
Duration : 43mn 24s
Bit rate mode : Constant
Bit rate : 384 Kbps
Channel(s) : 6 channels
Channel positions : Front: L C R, Side: L R, LFE
Sampling rate : 48.0 KHz
Bit depth : 16 bits
Compression mode : Lossy
Stream size : 119 MiB (6%)
Language : English
Default : No
Forced : No

Text
ID : 5
Format : UTF-8
Codec ID : S_TEXT/UTF8
Codec ID/Info : UTF-8 Plain Text
Language : English
Default : No
Forced : No
Просмотр доступен только для зарегистрированных пользователей
Просмотр доступен только для зарегистрированных пользователей
Просмотр доступен только для зарегистрированных пользователей
Просмотр доступен только для зарегистрированных пользователей
.
.
все раздачи сериала

официальный сайт сериала

русскоязычный сайт сериала

Скриншоты:


Время раздачи: 24/7 (10 сидов)
[NNM-Club.ru]_Fringe.S05.1080p.WEB-DL.Rus.Ukr.Eng.HDCLUB.torrent
 Торрент: Платиновая раздача  Зарегистрирован
 
Скачать


 Зарегистрирован:   22 Янв 2013 05:47:53
 Размер:   24.5 GB  (
 Рейтинг:   4.8 (Голосов: 84)
 Поблагодарили:   357
 Проверка:   Оформление проверено модератором 22 Янв 2013 15:39:22
Как cкачать  ·  Как раздать  ·  Правильно оформить  ·  Поднять ратио!  

_________________
_________________ _ 100 Mbit
devyxa
Стаж: 11 лет 8 мес.
Сообщений: 2
Ratio: 0.849
100%
а у меня нет звука в некоторых сериях а в остальных вообще какой то треск идет. что это может быть?
gratchovka
Стаж: 11 лет 2 мес.
Сообщений: 69
Ratio: 8.241
25.88%
Откуда: Саратов
russia.gif
Bert19
Скажите, пожалуйста, это только у меня все серии без русской лостфильмовской озвучки, в оригинале всё звучит?
Где закадровый профессиональный перевод, как обещано в описании???
Bert19 ®
Стаж: 10 лет 7 мес.
Сообщений: 309
Ratio: 91.791
Раздал: 26.28 TB
Поблагодарили: 6320
94.15%
Откуда: Обнинск
russia.gif
gratchovka писал(а): Перейти к сообщению
Bert19
Скажите, пожалуйста, это только у меня все серии без русской лостфильмовской озвучки, в оригинале всё звучит?
Где закадровый профессиональный перевод, как обещано в описании???


На основе проигрывателя VLCplayer:::


_________________
_________________ _ 100 Mbit
sgw2006
Стаж: 10 лет 4 мес.
Сообщений: 227
Ratio: 81.878
Поблагодарили: 10234
100%
Классный сериал! Ну и что теперь смотреть?)
Bert19 ®
Стаж: 10 лет 7 мес.
Сообщений: 309
Ratio: 91.791
Раздал: 26.28 TB
Поблагодарили: 6320
94.15%
Откуда: Обнинск
russia.gif
sgw2006 писал(а): Перейти к сообщению
Классный сериал! Ну и что теперь смотреть?)

c 30го продолжение 4го сезона "Хранилище 13" стартует...

_________________
_________________ _ 100 Mbit
kolyan666
Стаж: 14 лет 9 мес.
Сообщений: 28
Ratio: 49.629
100%
Откуда: from Ivanovo
russia.gif
Спасибо
Bert19 ®
Стаж: 10 лет 7 мес.
Сообщений: 309
Ratio: 91.791
Раздал: 26.28 TB
Поблагодарили: 6320
94.15%
Откуда: Обнинск
russia.gif
Вот сколько ни смотрю/раздаю всяких сериалов - такого качества картинки пока не встречал нигде. :(
Как-то дюже они его удачно сняли...

_________________
_________________ _ 100 Mbit
Sawyer13
Стаж: 10 лет 7 мес.
Сообщений: 8
Ratio: 112.547
Раздал: 15.15 TB
100%
ukraine.gif
спасибо огромное, что до сих пор на раздаче. Нигде никак не мог найти в этом качестве, хоть всего год прошел
igor_sv2
Стаж: 11 лет 4 мес.
Сообщений: 182
Ratio: 12.411
100%
Откуда: Deutschland
germany.gif
А продолжение будет?

_________________
Die Wissenschaft - mein Gott
VOLONT86
Стаж: 6 лет 1 мес.
Сообщений: 6
Ratio: 15.066
100%
дайте скорости! Как позвать скачавших?
Pascha1976
 
Стаж: 11 лет 2 мес.
Сообщений: 322
Ratio: 160.426
Раздал: 91.29 TB
Поблагодарили: 135
100%
Откуда: Из Вологды
russia.gif
Благодарю!!!
Первые четыре сезона просмотрел махом.

_________________
Тяжело это - быть добрым.
Постоянно злишься на тех, кто не добрый.
Показать сообщения:   
Начать новую тему   Ответить на тему    Торрент-трекер NNM-Club -> Зарубежные сериалы -> Грань / Fringe Часовой пояс: GMT + 3
Страницы:   Пред.  1, 2
Страница 2 из 2