Классический форум-трекер
canvas not supported
Нас вместе: 4 232 024

Покорители волн / Chasing Mavericks (2012) [H.264] DVDRip [Line]


 
 
RSS
Начать новую тему   Ответить на тему    Торрент-трекер NNM-Club -> Архив торрентов -> Архив Видео. Кино, Театра
Автор Сообщение
art-61 ®
Стаж: 12 лет 10 мес.
Сообщений: 1094
Ratio: 119.617
Поблагодарили: 143398
100%
Откуда: Санкт-Петербург
russia.gif
Покорители волн / Chasing Mavericks (2012) DVDRip
Русское название: Покорители волн
Оригинальное название: Chasing Mavericks
Год выпуска: 2012
Производство: США / Fox 2000 Pictures, Walden Media
Жанр: Драма, спорт

Перевод: Дублированный [Чистый звук]
Субтитры: Отсутствуют

Дата мировой премьеры: 25 октября 2012
Дата российской премьеры: 8 ноября 2012, «UPI»
Дата выхода DVD релиза: 5 февраля 2013, «Парадиз Медиа»

Режиссер: Кёртис Хэнсон
Продюсер: Кёртис Хэнсон, Брэндон Хупер, Джим Минаган
Актеры: Джерард Батлер, Эбигейл Спенсер, Элизабет Шу, Ливэн Рамбин, Скотт Иствуд, Тейлор Хэндли, Александр Канеллакос, Дженика Бергер, Купер Тимберлайн, Чэннон Роу

Описание фильма:
Серфинг — спорт королей. Не каждый сможет справиться с огромными волнами у побережья Калифорнии. Их называют Мавериксами, они достигают 25 метров в высоту. Хессон не раз покорял стихию, но не раскрыл своего секрета никому. Он дал обещание любимой женщине — больше не рисковать жизнью. Но смелость юного Джей подкупила Хессона. Смогут ли они, глядя смерти в лицо, удержаться на гребне волны?.



Продолжительность: 01:51:28
Качество видео: DVDRip

Видеокодек: MPEG-4 AVC/H.264
Битрейт видео: 2661 Кбит/сек
Размер кадра: 1024x544
Аудиокодек: AC3, 2 ch
Битрейт аудио: 448 kb/s
Общее
Уникальный идентификатор : 51639991419885855564557683885849012401 (0x26D980260896467E14E76F5276AD68B1)
Полное имя : E:\Cinema\Pokoriteli.voln.2012.D.DVDRip.mkv
Формат : Matroska
Версия формата : Version 2
Размер файла : 2,42 Гбайт
Продолжительность : 1 ч. 51 м.
Общий поток : 3106 Кбит/сек
Название фильма : Pokoriteli.voln.D.2012.DVDRip
Программа кодирования : Lavf52.93.0
Библиотека кодирования : Lavf52.93.0

Видео
Идентификатор : 1
Формат : AVC
Формат/Информация : Advanced Video Codec
Профиль формата : Baseline@L3.1
Параметр CABAC формата : Нет
Параметр ReFrames формата : 1 кадр
Идентификатор кодека : V_MPEG4/ISO/AVC
Продолжительность : 1 ч. 51 м.
Битрейт : 2661 Кбит/сек
Ширина : 1024 пикселя
Высота : 544 пикселя
Соотношение сторон : 1,882
Режим частоты кадров : Постоянный
Частота кадров : 25,000 кадров/сек
Цветовое пространство : YUV
Субдискретизация насыщенности : 4:2:0
Битовая глубина : 8 бит
Тип развёртки : Прогрессивная
Бит/(Пиксели*Кадры) : 0.191
Размер потока : 2,02 Гбайт (84%)
Библиотека кодирования : x264 core 112
Настройки программы : cabac=0 / ref=1 / deblock=1:0:0 / analyse=0x1:0x111 / me=hex / subme=7 / psy=1 / psy_rd=1.00:0.00 / mixed_ref=0 / me_range=16 / chroma_me=1 / trellis=1 / 8x8dct=0 / cqm=0 / deadzone=21,11 / fast_pskip=1 / chroma_qp_offset=-2 / threads=1 / sliced_threads=0 / nr=0 / decimate=1 / interlaced=0 / constrained_intra=0 / bframes=0 / weightp=0 / keyint=250 / keyint_min=25 / scenecut=40 / intra_refresh=0 / rc_lookahead=40 / rc=abr / mbtree=1 / bitrate=2661 / ratetol=1.0 / qcomp=0.60 / qpmin=10 / qpmax=51 / qpstep=4 / ip_ratio=1.41 / aq=1:1.00
Default : Да
Forced : Нет

Аудио
Идентификатор : 2
Формат : AC-3
Формат/Информация : Audio Coding 3
Расширение режима : CM (complete main)
Параметр Endianness формата : Big
Идентификатор кодека : A_AC3
Продолжительность : 1 ч. 51 м.
Вид битрейта : Постоянный
Битрейт : 448 Кбит/сек
Каналы : 2 канала
Расположение каналов : Front: L R
Частота : 48,0 КГц
Битовая глубина : 16 бит
Метод сжатия : С потерями
Задержка видео : -40 мс.
Размер потока : 357 Мбайт (14%)
Default : Да
Forced : Нет
Скриншоты:



Время раздачи: 24/7
[NNM-Club.ru]_Pokoriteli.voln.2012.D.DVDRip.mkv.torrent
 Торрент: Платиновая раздача  Зарегистрирован
 
Скачать


Примагнититься
 Зарегистрирован:   29 Янв 2013 19:59:07
 Размер:   2.42 GB  (
 Рейтинг:   4.6 (Голосов: 48)
 Поблагодарили:   208
 Проверка:   Оформление проверено модератором 29 Янв 2013 22:08:31
Как cкачать  ·  Как раздать  ·  Правильно оформить  ·  Поднять ратио!  
vvs888
Стаж: 16 лет 2 мес.
Сообщений: 29
Ratio: 3.745
100%
Откуда: Russia
russia.gif
Фильм просто зацепил. Уже дважды посмотрел. Спасибо! Теперь решил эту раздачу скачать. Разрешение повыше
Nymphetamin4ik
Стаж: 11 лет 5 мес.
Сообщений: 796
Ratio: 28.092
Поблагодарили: 57620
100%
nnm-club.gif
ИМХО конечно, но фильм запорола концовка
dlook
Стаж: 14 лет 3 мес.
Сообщений: 1918
Ratio: 52.734
Поблагодарили: 4065
100%
Серфинг - спорт королей? Интересно, каких королей? Не припомню ни одного короля США. В Европе спортом королей всегда считался конный спорт (поло).

_________________
Рейтинги контента на nnm накручены. Не смотри рейтинги, смотри комментарии.
lka1980
Стаж: 14 лет 3 мес.
Сообщений: 232
Ratio: 0.584
Поблагодарили: 1379
100%
russia.gif
понравился фильм. каждый что-то свое находит в таких фильмах, но основой остается стремление и самомотивация как бы пафосно это не звучало.

_________________
Проблема в том, что, не рискуя, мы рискуем в сто раз больше.
Dzenn1
Стаж: 12 лет 4 мес.
Сообщений: 50
Ratio: 9.181
Раздал: 20.52 TB
100%
Откуда: Казахстан
kazakhstan.gif
Очень хороший фильм!!! Советую посмотреть!!! И как я понял на реальных событиях!
PavelPugachOff
Стаж: 13 лет 11 мес.
Сообщений: 195
Ratio: 1.613
100%
russia.gif
По гребню адской волны
Плавают серфингисты.
Выжить они должны,
Плечисты и мускулисты!
Так храбро плывут на доске,
Взмывая на волн девятый.
Не могут сидеть в тоске
Спортивные те ребята!
Потом опускаясь на дно,
Клыков не страшась акульих.
Утопнуть не суждено,
Свои акваланги продули!
Не нужен им на фиг челн,
И парус на мачте не нужен.
Храбры покорители волн,
Китам не пойдут на ужин!
Бездна совсем не страшна
Отчаянным серфингистам!
Жаль только жизнь одна,
Лишь в свете побед лучиста!

10 из 10. Понравился!!!
Bart-x
Стаж: 11 лет 4 мес.
Сообщений: 2
Ratio: 19.09
100%
Может у меня одного со звуком лажа, но если слышно тихие диалоги, то с "громких" сцен окна дребезжат.
andr1525
Покровитель талантов
Стаж: 13 лет 5 мес.
Сообщений: 2139
Ratio: 5.475
Поблагодарили: 171793
100%
russia.gif
Bart-x
Просто скачай Лицензию Покорители волн / Chasing Mavericks (2012) [H.264] DVDRip
А в этой раздаче Чистый звук.
Топик был перенесен из форума Зарубежные Новинки (HD*Rip/LQ, DVDRip) в форум Архив Видео

Причина переноса: на трекере появился лицензионный звук
Lelya_K
Показать сообщения:   
Начать новую тему   Ответить на тему    Торрент-трекер NNM-Club -> Архив торрентов -> Архив Видео. Кино, Театра Часовой пояс: GMT + 3
Страница 1 из 1