Классический форум-трекер
canvas not supported
Нас вместе: 4 231 778

Операция «Арго» / Argo (2012) HDRip


 
 
RSS
Начать новую тему   Ответить на тему    Торрент-трекер NNM-Club -> Зарубежное кино -> Зарубежные Фильмы (SD)
Автор Сообщение
Sедой ®
Стаж: 13 лет 6 мес.
Сообщений: 3057
Ratio: 5117.534
Поблагодарили: 649800
100%
Откуда: Донецк
Операция «Арго» / Argo (2012) HDRip«Кино для прикрытия»
Русское название: Операция «Арго»
Оригинальное название: Argo
Год выпуска: 2012
Производство: США / GK Films, Smoke House, Warner Bros. Pictures
Жанр: Триллер, Драма
Перевод: Дублированный [лицензия]
Субтитры: Отсутствуют

Дата мировой премьеры: 31 августа 2012
Дата российской премьеры: 8 ноября 2012, «Каро-Премьер»
Дата выхода DVD релиза: 14 февраля 2013, «CP Дистрибуция»,
Дата выхода Blu-Ray релиза: 14 февраля 2013, «CP Дистрибуция»,

Режиссер: Бен Аффлек
Продюсер: Бен Аффлек, Джордж Клуни, Грант Хеслов
Актеры: Бен Аффлек, Брайан Крэнстон, Алан Аркин, Джон Гудмен, Виктор Гарбер, Тейт Донован, Клеа Дюваль, Скут МакНэйри, Рори Кокрейн, Кристофер Денхам

Описание фильма:
4 ноября 1979 г. революция в Иране достигает своего апогея, студенты-исламисты штурмуют посольство США в Тегеране и берут в заложники 52 американца. Но в этом хаосе шестерым удается ускользнуть и найти прибежище в доме канадского посла. Понимая, что их обнаружение и, вероятнее всего, убийство — всего лишь вопрос времени, Тони Мендес, специалист ЦРУ по тайному вывозу людей из страны, предлагает рискованный план безопасной эвакуации. План столь невероятен, что такое бывает только в кино.



Продолжительность: 02:00:22
Качество видео: HDRip

Видеокодек: Xvid
Битрейт видео: ~727 Kbit/s
Размер кадра: 640 x 272
Аудиокодек: MP3, 2.0
Битрейт аудио: 128 Kbit/s
Общее
Полное имя : D:\Торренты\Операция «Арго».2012.HDRip.avi
Формат : AVI
Формат/Информация : Audio Video Interleave
Размер файла : 745 Мбайт
Продолжительность : 2 ч. 0 м.
Общий поток : 865 Кбит/сек
Программа кодирования : VirtualDubMod 1.5.10.2 (build 2540/release)
Библиотека кодирования : VirtualDubMod build 2540/release

Видео
Идентификатор : 0
Формат : MPEG-4 Visual
Профиль формата : Advanced Simple@L5
Параметр BVOP формата : 1
Параметр QPel формата : Нет
Параметр GMC формата : Без точки перехода
Параметр матрицы формата : Выборочная
Идентификатор кодека : XVID
Идентификатор кодека/Подсказка : XviD
Продолжительность : 2 ч. 0 м.
Битрейт : 727 Кбит/сек
Ширина : 640 пикс.
Высота : 272 пикс.
Соотношение сторон : 2,35:1
Частота кадров : 23,976 кадр/сек
Цветовое пространство : YUV
Подвыборка цветности : 4:2:0
Битовая глубина : 8 бит
Тип развёртки : Прогрессивная
Метод сжатия : С потерями
Бит/(Пиксели*Кадры) : 0.174
Размер потока : 626 Мбайт (84%)
Библиотека кодирования : XviD 1.2.1 (UTC 2008-12-04)

Аудио
Идентификатор : 1
Формат : MPEG Audio
Версия формата : Version 1
Профиль формата : Layer 3
Идентификатор кодека : 55
Идентификатор кодека/Подсказка : MP3
Продолжительность : 2 ч. 0 м.
Вид битрейта : Постоянный
Битрейт : 128 Кбит/сек
Каналы : 2 канала
Частота : 48,0 КГц
Метод сжатия : С потерями
Размер потока : 110 Мбайт (15%)
Выравнивание : Соединение по промежуткам
Продолжительность промежутка : 42 мс. (1,00 видеокадр)
Время предзагрузки промежутка : 504 ms
Библиотека кодирования : LAME3.97

Скриншоты:

Время раздачи: 24/7 по возможности
[NNM-Club.ru]_Operatsiya «Argo».2012.HDRip.avi.torrent
 Торрент: Платиновая раздача  Зарегистрирован
 
Скачать


Примагнититься
 Зарегистрирован:   01 Фев 2013 22:43:51
 Размер:   745 MB  (
 Рейтинг:   4.6 (Голосов: 96)
 Поблагодарили:   508
 Проверка:   Оформление проверено модератором 02 Фев 2013 08:54:53
Как cкачать  ·  Как раздать  ·  Правильно оформить  ·  Поднять ратио!  
stal31
Стаж: 13 лет 2 мес.
Сообщений: 21
Ratio: 23.422
100%
russia.gif
спасибо
erdinger
 
Стаж: 14 лет 1 мес.
Сообщений: 527
Ratio: 0.667
100%
germany.gif
Очень долго ждал лицензию.
V4nD4LL
Стаж: 13 лет 4 мес.
Сообщений: 111
Ratio: 18.831
7.19%
наконец то в дубляже))) не смог его смотреть в закадровом
j_777
Стаж: 12 лет 9 мес.
Сообщений: 5
Ratio: 1.29
100%
russia.gif
Ооооо, наконец дубляж и размер, подходящий для двд, Дождалась))))) Спасибо!
saharovg
Стаж: 12 лет 11 мес.
Сообщений: 4
Ratio: 2.565
100%
ukraine.gif
Спасибо
evilracoon
Стаж: 12 лет 7 мес.
Сообщений: 35
Ratio: 8.639
0.48%
спасибо!!!!
Показать сообщения:   
Начать новую тему   Ответить на тему    Торрент-трекер NNM-Club -> Зарубежное кино -> Зарубежные Фильмы (SD) Часовой пояс: GMT + 3
Страница 1 из 1