Классический форум-трекер
canvas not supported
Нас вместе: 4 231 709

Операция «Арго» / Argo (2012) [720p] BDRip


 
 
RSS
Начать новую тему   Ответить на тему    Торрент-трекер NNM-Club -> Архив торрентов -> Архив Видео. Кино, Театра
Автор Сообщение
Zov72 ®
Стаж: 14 лет 1 мес.
Сообщений: 4743
Ratio: 110.504
Поблагодарили: 610746
100%
Откуда: Вольный кабан
wild_hogs.gif
Операция «Арго» / Argo (2012) ВDRip
«Кино для прикрытия»
Русское название: Операция «Арго»
Оригинальное название: Argo
Год выпуска: 2012
Производство: США / GK Films, Smoke House, Warner Bros. Pictures
Жанр: Триллер, Драма
Перевод: Дублированный [лицензия]
Языу субтитров: Английский
Вид субтитров: Вшитые отключаемые

Дата мировой премьеры: 31 августа 2012
Дата российской премьеры: 8 ноября 2012, «Каро-Премьер»
Дата выхода DVD релиза: 14 февраля 2013, «CP Дистрибуция»,
Дата выхода Blu-Ray релиза: 14 февраля 2013, «CP Дистрибуция»,

Режиссер: Бен Аффлек
Продюсер: Бен Аффлек, Джордж Клуни, Грант Хеслов
Актеры: Бен Аффлек, Брайан Крэнстон, Алан Аркин, Джон Гудмен, Виктор Гарбер, Тейт Донован, Клеа Дюваль, Скут МакНэйри, Рори Кокрейн, Кристофер Денхам

Описание фильма:
4 ноября 1979 г. революция в Иране достигает своего апогея, студенты-исламисты штурмуют посольство США в Тегеране и берут в заложники 52 американца. Но в этом хаосе шестерым удается ускользнуть и найти прибежище в доме канадского посла. Понимая, что их обнаружение и, вероятнее всего, убийство — всего лишь вопрос времени, Тони Мендес, специалист ЦРУ по тайному вывозу людей из страны, предлагает рискованный план безопасной эвакуации. План столь невероятен, что такое бывает только в кино.

Продолжительность: 02:00:22
Качество видео: ВDRip

Видеокодек: MPEG-4 AVC/H.264
Битрейт видео: ~ 4984 Kbit/s
Размер кадра: 1280x536
Аудио#1: 48 kHz, AC3, 3/2 (L,C,R,l,r) + LFE ch, ~384.00 kbps (Russian)
Аудио#2: 48 kHz, DTS, 3/2 (L,C,R,l,r) + LFE ch, ~1510.0 kbps (English)

Сэмпл: Скачать
Код:

Общее
Уникальный идентификатор                 : 229788442276373530144289583916394388800 (0xACDFA4E955E0B29FBAC47A2EE9DA9D40)
Полное имя                               : E:\Загрузка\Argo.2012.D.BDRip.720p.mkv
Формат                                   : Matroska
Версия формата                           : Version 2
Размер файла                             : 5,78 Гбайт
Продолжительность                        : 2 ч. 0 м.
Общий поток                              : 6877 Кбит/сек
Дата кодирования                         : UTC 2013-02-01 17:56:26
Программа кодирования                    : mkvmerge v4.9.1 ('Ich will') сборка от Jul 11 2011 23:53:15
Библиотека кодирования                   : libebml v1.2.1 + libmatroska v1.1.1

Видео
Идентификатор                            : 1
Формат                                   : AVC
Формат/Информация                        : Advanced Video Codec
Профиль формата                          : High@L4.1
Параметр CABAC формата                   : Да
Параметр ReFrames формата                : 5 кадров
Идентификатор кодека                     : V_MPEG4/ISO/AVC
Продолжительность                        : 2 ч. 0 м.
Битрейт                                  : 4984 Кбит/сек
Ширина                                   : 1280 пикселей
Высота                                   : 536 пикселей
Соотношение сторон                       : 2,40:1
Частота кадров                           : 23,976 кадра/сек
Цветовое пространство                    : YUV
Субдискретизация насыщенности            : 4:2:0
Битовая глубина                          : 8 бит
Тип развёртки                            : Прогрессивная
Бит/(Пиксели*Кадры)                      : 0.303
Размер потока                            : 4,07 Гбайт (70%)
Заголовок                                : Argo.2012.720p.BluRay.x264-SPARKS
Библиотека кодирования                   : x264 core 129 r2245 bc13772
Настройки программы                      : cabac=1 / ref=5 / deblock=1:0:0 / analyse=0x3:0x133 / me=umh / subme=7 / psy=1 / psy_rd=1.00:0.00 / mixed_ref=1 / me_range=16 / chroma_me=1 / trellis=1 / 8x8dct=1 / cqm=0 / deadzone=21,11 / fast_pskip=0 / chroma_qp_offset=-2 / threads=12 / lookahead_threads=2 / sliced_threads=0 / nr=0 / decimate=1 / interlaced=0 / bluray_compat=0 / constrained_intra=0 / bframes=3 / b_pyramid=2 / b_adapt=1 / b_bias=0 / direct=1 / weightb=1 / open_gop=0 / weightp=2 / keyint=250 / keyint_min=23 / scenecut=40 / intra_refresh=0 / rc_lookahead=40 / rc=2pass / mbtree=1 / bitrate=4984 / ratetol=1.0 / qcomp=0.60 / qpmin=0 / qpmax=69 / qpstep=4 / cplxblur=20.0 / qblur=0.5 / ip_ratio=1.40 / aq=1:1.00
Язык                                     : English
Default                                  : Да
Forced                                   : Да

Аудио #1
Идентификатор                            : 2
Формат                                   : AC-3
Формат/Информация                        : Audio Coding 3
Расширение режима                        : CM (complete main)
Параметр Endianness формата              : Big
Идентификатор кодека                     : A_AC3
Продолжительность                        : 2 ч. 0 м.
Вид битрейта                             : Постоянный
Битрейт                                  : 384 Кбит/сек
Каналы                                   : 6 каналов
Расположение каналов                     : Front: L C R, Side: L R, LFE
Частота                                  : 48,0 КГц
Битовая глубина                          : 16 бит
Метод сжатия                             : С потерями
Размер потока                            : 331 Мбайт (6%)
Заголовок                                : DD 5.1 @ 384 kbps - Dub, R5
Язык                                     : Russian
Default                                  : Да
Forced                                   : Да

Аудио #2
Идентификатор                            : 3
Формат                                   : DTS
Формат/Информация                        : Digital Theater Systems
Идентификатор кодека                     : A_DTS
Продолжительность                        : 2 ч. 0 м.
Вид битрейта                             : Постоянный
Битрейт                                  : 1510 Кбит/сек
Каналы                                   : 6 каналов
Расположение каналов                     : Front: L C R, Side: L R, LFE
Частота                                  : 48,0 КГц
Битовая глубина                          : 24 бит
Метод сжатия                             : С потерями
Размер потока                            : 1,27 Гбайт (22%)
Заголовок                                : DTS 5.1 @ 1536 kbps
Язык                                     : English
Default                                  : Нет
Forced                                   : Нет

Текст #1
Идентификатор                            : 4
Формат                                   : UTF-8
Идентификатор кодека                     : S_TEXT/UTF8
Идентификатор кодека/Информация          : UTF-8 Plain Text
Заголовок                                : English
Язык                                     : English
Default                                  : Нет
Forced                                   : Нет

Текст #2
Идентификатор                            : 5
Формат                                   : UTF-8
Идентификатор кодека                     : S_TEXT/UTF8
Идентификатор кодека/Информация          : UTF-8 Plain Text
Заголовок                                : English SDH
Язык                                     : English
Default                                  : Нет
Forced                                   : Нет

Меню
00:00:00.000                             : en:00:00:00.000
00:12:39.759                             : en:00:12:39.759
00:19:36.092                             : en:00:19:36.092
00:28:59.571                             : en:00:28:59.571
00:42:48.608                             : en:00:42:48.608
00:50:01.540                             : en:00:50:01.540
01:00:00.055                             : en:01:00:00.055
01:09:09.520                             : en:01:09:09.520
01:19:46.824                             : en:01:19:46.824
01:30:14.117                             : en:01:30:14.117
01:39:00.852                             : en:01:39:00.852
01:51:34.771                             : en:01:51:34.771

Скриншоты:



Приятного просмотра
и не забываем говорить СПАСИБО...

Время раздачи: 24/7
до 15 скачавших..
[NNM-Club.ru]_Argo.2012.D.BDRip.720p.mkv.torrent
 Торрент: Платиновая раздача  Зарегистрирован
 
Скачать


 Зарегистрирован:   02 Фев 2013 00:51:05
 Размер:   5.78 GB  (
 Рейтинг:   4.7 (Голосов: 101)
 Поблагодарили:   493
 Проверка:   Оформление проверено модератором 02 Фев 2013 19:48:47
Как cкачать  ·  Как раздать  ·  Правильно оформить  ·  Поднять ратио!  
maxedo
 
Стаж: 12 лет 2 мес.
Сообщений: 125
Ratio: 18.056
Раздал: 105.3 TB
Поблагодарили: 313
3.69%
russia.gif
Ура, лицензия!!
keraH
Стаж: 11 лет 9 мес.
Сообщений: 59
Ratio: 22.344
100%
это точно лицензия???
Rabindranat
Стаж: 13 лет 8 мес.
Сообщений: 364
Ratio: 6.592
Раздал: 10.89 TB
Поблагодарили: 1643
100%
india.gif
Было бы круто 1080p увидеть в ближайший час =)
bandidze
Стаж: 13 лет 5 мес.
Сообщений: 5
Ratio: 11.091
0.74%
Откуда: Москва
russia.gif
От Души,за раздачу :респект: !Но фильм говорят на разок,взглянем :шок:
EXCITER_
Стаж: 14 лет 9 мес.
Сообщений: 623
Ratio: 10.433
100%
Откуда: Moscow
russia.gif
bandidze писал(а): Перейти к сообщению
Но фильм говорят на разок,взглянем :шок:


ясный пень что на разок,97% нынешних фильмов,только на разок))) :подмигивание:
Vilos
Стаж: 14 лет 8 мес.
Сообщений: 196
Ratio: 13.632
100%
russia.gif
EXCITER_ писал(а): Перейти к сообщению

ясный пень что на разок

Таков сюжет, что второй раз уже нет интриги, смотреть неинтересно. Но фильм хороший, всю дорогу держит в напряжении.
Bonusso
Стаж: 12 лет 11 мес.
Сообщений: 152
Ratio: 5.713
Раздал: 5.29 TB
100%
austria.gif
Фильм... Очень старались. Молодцы! Много смотрели фильмов с тем же Ретфордом. Как всегда противники хороших парней тупоголовые бородачи, говорящие на гортанных языках, с выпученными глазами и готовые повесить любого белого. Все "белые" - такие белые! В смысле помыслов! Идущие друг другу на помощь! Голливуд на посылках у ЦРУ. Главный спаситель - семьянин и душка - Беня Афлек! Ну и что, с вечно унылым лицом - работа такая!
Неужели правда - любой американец (канадец, европеец, австралиец и пр.) может оказаться ЦРУ-шником?! Может не так уж и неправы были иранцы, которые недоверяли никому из WOSP...
Ретфорд и Питт в "Шпионских играх" были и умнее, и человечнее и ... талантливее как актёры. И, конечно же, "Совокупность лжи" - вот фильмы о работе разведки и контрразведки.
Jeeingo2012
Стаж: 11 лет 1 мес.
Сообщений: 7
Ratio: 0.113
3.33%
ай да Аффлек а да молодец! актёр снял такой шедефр. Красава!
methodstarr
Стаж: 13 лет 11 мес.
Сообщений: 28
Ratio: 0.526
100%
Отличное качество рипа, спасибо!
ulancer
Стаж: 11 лет 5 мес.
Сообщений: 6
Ratio: 1.304
0%
За что этот фильм призы гребет на последних кино-конкурсах - не понятно. Конечно - сделано все по высшему разряду, очень правдоподобно, почти как документальный и смотрится с интересом, но не греет совсем.
Топик был перенесен из форума Зарубежные Фильмы (HD) в форум Архив Видео

Причина переноса: http://nnmclub.to/forum/viewtopic.php?t=618265
batonchik
gumapumba
Стаж: 13 лет 8 мес.
Сообщений: 148
Ratio: 4.09
100%
спасибо за фильм!
качество отличное, сам фильм то же хороший.
Показать сообщения:   
Начать новую тему   Ответить на тему    Торрент-трекер NNM-Club -> Архив торрентов -> Архив Видео. Кино, Театра Часовой пояс: GMT + 3
Страница 1 из 1