Классический форум-трекер
canvas not supported
Нас вместе: 4 172 758

Не говори ни слова / Don't Say a Word (2001) DVD9


 
 
RSS
Начать новую тему   Ответить на тему    Торрент-трекер NNM-Club -> Архив торрентов -> Архив Видео
Автор Сообщение
Alex_Fors ®
Стаж: 11 лет 2 мес.
Сообщений: 386
Ratio: 102.587
Поблагодарили: 18913
100%
portugal.gif
Не говори ни слова / Don't Say a Word (2001) DVD9
Русское название: Не говори ни слова
Оригинальное название: Don't Say a Word
Производство: США, Австралия
Год выпуска: 2001
Жанр: Триллер, Драма, Криминал

Описание фильма:
«Вы хотите того же, что они?… Я никогда не скажу… никому из вас» — вот первые слова Элизабет, обращенные к знаменитому психиатру Натану Конраду. Элизабет, замкнутая в себе девушка, страдающая припадками немотивированной агрессии, причину которой никто до сих пор не смог объяснить и, тем более, устранить.

В Натане просыпается профессиональный интерес и он принимается за лечение, но проходит совсем немного времени, и он узнает, что Элизабет и ее болезнь каким-то таинственным образом связаны с опасностью, грозящей ему и его семье. Дочь психиатра похищают самым бесцеремонным образом, а за ним и его женой устанавливают круглосуточное наблюдение. Чтобы спасти дочь, Натану необходимо расшифровать шестизначный код, спрятанный в затуманенном сознании его пациентки.

Режиссер: Гэри Фледер
Актеры: Майкл Дуглас, Бриттани Мерфи, Шон Бин, Дженнифер Эспозито, Фамке Янссен, Скай МакКоул Бартусяк, Гай Торри, Шон Дойл, Виктор Арго, Конрад Гуд ...

Продолжительность: 01:48:57
Перевод: Дублированный
Язык субтитров: чешский, английский, венгерский, польский, русский, турецкий
Вид субтитров: Вшитые



Дата мировой премьеры: 24 сентября 2001
Дата российской премьеры: 29 ноября 2001, «Гемини Киномир»
Дата выхода DVD релиза: 12 февраля 2009, «Двадцатый Век Фокс СНГ»

Видеокодек: MPEG-2
Битрейт видео: ~5447 kb/s
Размер кадра: 720x576@1024x576 (PAL 16:9) VBR Auto Letterboxed
Качество видео: DVD9
Аудио: (Dolby AC3, 2 ch) ~192 kb/s |Чешский, дублированный|
Аудио: (Dolby AC3, 6 ch) ~448 kb/s |Английский, оригинальный|
Аудио: (Dolby AC3, 5 ch) ~384 kb/s |Венгерский, дублированный|
Аудио: (Dolby AC3, 6 ch) ~384 kb/s |Польский, одноголосый закадровый|
Аудио: (Dolby AC3, 6 ch) ~384 kb/s |Русский, дублированный|
Аудио: (Dolby AC3, 2 ch) ~192 kb/s |Турецкий, дублированный|
СЭМПЛ
Дополнительные материалы: Отсутствуют
Title: Не говори ни слова.2001.DVD9
Size: 5.79 Gb ( 6 075 674,00 KBytes ) - DVD-9
Enabled regions: 1, 2, 3, 4, 5, 6, 7, 8

VTS_01 :
Play Length: 00:00:00
Video: PAL 16:9 (720x576) VBR, Auto Letterboxed
Subtitles:
Czech(Ceske)
English
Magyar
Polish
Russian
Turkish

VTS_02 :
Play Length: 01:48:57
Video: PAL 16:9 (720x576) VBR, Auto Letterboxed
Audio:
Czech(Ceske) (Dolby AC3, 2 ch)
English (Dolby AC3, 6 ch)
Magyar (Dolby AC3, 5 ch)
Polish (Dolby AC3, 6 ch)
Russian (Dolby AC3, 6 ch)
Turkish (Dolby AC3, 2 ch)
Subtitles:
Czech(Ceske)
English
Magyar
Polish
Russian
Turkish

VTS_03 :
Play Length: 00:00:27
Video: PAL 16:9 (720x576) VBR, Auto Letterboxed
Audio:
Czech(Ceske) (Dolby AC3, 6 ch)
English (Dolby AC3, 6 ch)
Magyar (Dolby AC3, 6 ch)
Polish (Dolby AC3, 6 ch)
Russian (Dolby AC3, 6 ch)
Turkish (Dolby AC3, 6 ch)
Subtitles:
Czech(Ceske)
English
Magyar
Polish
Russian
Turkish

VTS_04 :
Play Length: 00:00:48
Video: PAL 16:9 (720x576) VBR, Auto Letterboxed
Audio:
English (Dolby AC3, 2 ch)

* Menus Information *

VIDEO_TS Menu
Video:
PAL 16:9 (720x576) VBR
Auto Pan&Scan
Language Unit :
Title Menu

VTS_01 Menu
Video:
PAL 16:9 (720x576) VBR
Auto Letterboxed
Language Unit :
Root Menu

VTS_02 Menu
Video:
PAL 16:9 (720x576) VBR
Auto Pan&Scan
Language Unit :
Root Menu

VTS_03 Menu
Video:
PAL 16:9 (720x576) VBR
Auto Pan&Scan
Language Unit :
Root Menu

VTS_04 Menu
Video:
PAL 16:9 (720x576) VBR
Auto Letterboxed
Language Unit :
Root Menu
Формат : MPEG-PS
Размер файла : 1024 Мбайт
Продолжительность : 18 м.
Общий поток : 7582 Кбит/сек

Видео
Идентификатор : 224 (0xE0)
Формат : MPEG Video
Версия формата : Version 2
Профиль формата : Main@Main
Параметр BVOP формата : Да
Параметр матрицы формата : Выборочная
Параметр GOP формата : M=3, N=15
Продолжительность : 18 м.
Вид битрейта : Переменный
Битрейт : 5447 Кбит/сек
Максимальный битрейт : 7500 Кбит/сек
Ширина : 720 пикселей
Высота : 576 пикселей
Соотношение сторон : 16:9
Частота кадров : 25,000 кадров/сек
Стандарт вещания : PAL
Цветовое пространство : YUV
Субдискретизация насыщенности : 4:2:0
Битовая глубина : 8 бит
Тип развёртки : Прогрессивная
Порядок развёртки : Верхнее поле первое
Метод сжатия : С потерями
Бит/(Пиксели*Кадры) : 0.525
Размер потока : 735 Мбайт (72%)

Аудио #1
Идентификатор : 189 (0xBD)-128 (0x80)
Формат : AC-3
Формат/Информация : Audio Coding 3
Профиль формата : Dolby Digital
Расширение режима : CM (complete main)
Режим смешивания : DVD-Video
Продолжительность : 18 м.
Вид битрейта : Постоянный
Битрейт : 192 Кбит/сек
Каналы : 2 канала
Расположение каналов : Front: L R
Частота : 48,0 КГц
Битовая глубина : 16 бит
Метод сжатия : С потерями
Задержка видео : -400 мс.
Размер потока : 25,9 Мбайт (3%)

Аудио #2
Идентификатор : 189 (0xBD)-129 (0x81)
Формат : AC-3
Формат/Информация : Audio Coding 3
Расширение режима : CM (complete main)
Режим смешивания : DVD-Video
Продолжительность : 18 м.
Вид битрейта : Постоянный
Битрейт : 448 Кбит/сек
Каналы : 6 каналов
Расположение каналов : Front: L C R, Side: L R, LFE
Частота : 48,0 КГц
Битовая глубина : 16 бит
Метод сжатия : С потерями
Задержка видео : -440 мс.
Размер потока : 60,5 Мбайт (6%)

Аудио #3
Идентификатор : 189 (0xBD)-130 (0x82)
Формат : AC-3
Формат/Информация : Audio Coding 3
Расширение режима : CM (complete main)
Режим смешивания : DVD-Video
Продолжительность : 18 м.
Вид битрейта : Постоянный
Битрейт : 384 Кбит/сек
Каналы : 5 каналов
Расположение каналов : Front: L C R, Side: L R
Частота : 48,0 КГц
Битовая глубина : 16 бит
Метод сжатия : С потерями
Задержка видео : -464 мс.
Размер потока : 51,9 Мбайт (5%)

Аудио #4
Идентификатор : 189 (0xBD)-131 (0x83)
Формат : AC-3
Формат/Информация : Audio Coding 3
Расширение режима : CM (complete main)
Режим смешивания : DVD-Video
Продолжительность : 18 м.
Вид битрейта : Постоянный
Битрейт : 384 Кбит/сек
Каналы : 6 каналов
Расположение каналов : Front: L C R, Side: L R, LFE
Частота : 48,0 КГц
Битовая глубина : 16 бит
Метод сжатия : С потерями
Задержка видео : -464 мс.
Размер потока : 51,9 Мбайт (5%)

Аудио #5
Идентификатор : 189 (0xBD)-132 (0x84)
Формат : AC-3
Формат/Информация : Audio Coding 3
Расширение режима : CM (complete main)
Режим смешивания : DVD-Video
Продолжительность : 18 м.
Вид битрейта : Постоянный
Битрейт : 384 Кбит/сек
Каналы : 6 каналов
Расположение каналов : Front: L C R, Side: L R, LFE
Частота : 48,0 КГц
Битовая глубина : 16 бит
Метод сжатия : С потерями
Задержка видео : -448 мс.
Размер потока : 51,9 Мбайт (5%)

Аудио #6
Идентификатор : 189 (0xBD)-133 (0x85)
Формат : AC-3
Формат/Информация : Audio Coding 3
Профиль формата : Dolby Digital
Расширение режима : CM (complete main)
Режим смешивания : DVD-Video
Продолжительность : 18 м.
Вид битрейта : Постоянный
Битрейт : 192 Кбит/сек
Каналы : 2 канала
Расположение каналов : Front: L R
Частота : 48,0 КГц
Битовая глубина : 16 бит
Метод сжатия : С потерями
Задержка видео : -456 мс.
Размер потока : 25,9 Мбайт (3%)

Текст #1
Идентификатор : 189 (0xBD)-32 (0x20)
Формат : RLE
Формат/Информация : Run-length encoding
Режим смешивания : DVD-Video

Текст #2
Идентификатор : 189 (0xBD)-33 (0x21)
Формат : RLE
Формат/Информация : Run-length encoding
Режим смешивания : DVD-Video

Текст #3
Идентификатор : 189 (0xBD)-34 (0x22)
Формат : RLE
Формат/Информация : Run-length encoding
Режим смешивания : DVD-Video

Текст #4
Идентификатор : 189 (0xBD)-35 (0x23)
Формат : RLE
Формат/Информация : Run-length encoding
Режим смешивания : DVD-Video

Текст #5
Идентификатор : 189 (0xBD)-36 (0x24)
Формат : RLE
Формат/Информация : Run-length encoding
Режим смешивания : DVD-Video

Текст #6
Идентификатор : 189 (0xBD)-37 (0x25)
Формат : RLE
Формат/Информация : Run-length encoding
Режим смешивания : DVD-Video

Меню
Скриншоты:


Не говори ни слова на NNM-Сlub

Время раздачи: 15:00-20:00
[NNM-Club.ru]_Ne govori ni slova.2001.DVD9.torrent
 Торрент: Платиновая раздача  Зарегистрирован
 
Скачать


 Зарегистрирован:   22 Фев 2013 01:34:46
 Размер:   5.79 GB  (
 Рейтинг:   4.1 (Голосов: 17)
 Поблагодарили:   47
 Проверка:   Оформление проверено модератором 22 Фев 2013 07:18:59
Как cкачать  ·  Как раздать  ·  Правильно оформить  ·  Поднять ратио!  
Топик был перенесен из форума Зарубежные Фильмы (DVD) в форум Архив Видео

Причина переноса: Раздающего не было месяц или более
MAG3131
Показать сообщения:   
Начать новую тему   Ответить на тему    Торрент-трекер NNM-Club -> Архив торрентов -> Архив Видео Часовой пояс: GMT + 3
Страница 1 из 1