Классический форум-трекер
canvas not supported
Нас вместе: 4 093 630

Никогда не сдавайся / Never Back Down (2008) BDRip [Unrated]


 
 
RSS
Начать новую тему   Ответить на тему    Торрент-трекер NNM-Club -> Зарубежное кино -> Зарубежные Фильмы (HD*Rip/LQ, DVDRip, SATRip, VHSRip)
Автор Сообщение
Yarmak23 ®
Стаж: 8 лет 10 мес.
Сообщений: 354
Ratio: 33,836
Раздал: 3,697 TB
Поблагодарили: 64045
100%
russia.gif
Никогда не сдавайся / Never Back Down (2008) BDRip
«Win or Lose... Everyone Has Their Fight»

Русское название: Никогда не сдавайся
Оригинальное название: Never Back Down
Год выпуска: 2008
Производство: США
Жанр: Боевик, Драма
Перевод: Профессиональный (дублированный) |Лицензия|
Cубтитры: русские (на расш.эпизоды: ~5 фраз) (вшитые)
Режиссер: Джефф Уадлоу / Jeff Wadlow
Актеры: Шон Фэрис, Эмбер Хёрд, Кэм Жиганде, Ивэн Питерс, Лесли Хоуп, Джимон Хунсу, Виатт Смит, Эффион Крокетт, Нил Браун мл., Лоурен Лич
Описание фильма:
Джейк Тайлер вместе со всей своей семьей переезжает в Орландо, чтобы поддержать стремление младшего брата добиться успехов в профессиональной теннисной карьере. Джейк, который в родном городе был звездой футбольной команды, на новом месте превращается в изгоя. Пытаясь как-то адаптироваться в новом обществе, Джейк принимает приглашение очаровательной одноклассницы Байи на вечеринку. Там он вопреки своим желаниям ввязывается в драку с местным задирой Райаном, в результате которой оказывается побитым и униженным.

После боя один из одноклассников Джейка рассказывает ему о спорте, в котором смешались многочисленные виды боевых искусств, известные человечеству, и позже знакомит его с тренером Жаном Рокуа. Рокуа становится наставником Джейка, но при одном условии — никогда не использовать силу в своих личных целях…

Релиз от:
Автор рипа: Yarmak23

Продолжительность: 01:53:25
Качество видео: BDRip |исходник: BD-Remux 1080p|

Видео: 720x304 (2.37:1), 23.976 fps, XviD 65 ~1446 kbps avg, 0.275 bit/pixel
Аудио: 48 kHz, AC3 Dolby Digital, 3/2 (L,C,R,l,r) + LFE ch, 384.00 kbps Constant |Дубляж|

Скачать: Сэмпл
General
Complete name : Nikogda.ne.sdavaisya.2008.D.BDRip.1.45GB_by_Yarmak23.avi
Format : AVI
Format/Info : Audio Video Interleave
File size : 1.46 GiB
Duration : 1h 53mn
Overall bit rate : 1 839 Kbps
Writing application : VirtualDubModRus 1.5.10.2 (build 2542/release)
Writing library : VirtualDubMod build 2542/release

Video
ID : 0
Format : MPEG-4 Visual
Format profile : Advanced Simple@L5
Format settings, BVOP : 1
Format settings, QPel : No
Format settings, GMC : No warppoints
Format settings, Matrix : Custom
Codec ID : XVID
Codec ID/Hint : XviD
Duration : 1h 53mn
Bit rate : 1 446 Kbps
Width : 720 pixels
Height : 304 pixels
Display aspect ratio : 2.35:1
Frame rate : 23.976 fps
Color space : YUV
Chroma subsampling : 4:2:0
Bit depth : 8 bits
Scan type : Progressive
Compression mode : Lossy
Bits/(Pixel*Frame) : 0.275
Stream size : 1.15 GiB (79%)
Writing library : XviD 65

Audio
ID : 1
Format : AC-3
Format/Info : Audio Coding 3
Mode extension : CM (complete main)
Format settings, Endianness : Big
Codec ID : 2000
Duration : 1h 53mn
Bit rate mode : Constant
Bit rate : 384 Kbps
Channel(s) : 6 channels
Channel positions : Front: L C R, Side: L R, LFE
Sampling rate : 48.0 KHz
Bit depth : 16 bits
Compression mode : Lossy
Stream size : 311 MiB (21%)
Alignment : Split accross interleaves
Interleave, duration : 42 ms (1.00 video frame)
Interleave, preload duration : 500 ms
Скриншоты:

Зрителям, достигшим 16 лет
Никогда не сдавайся на nnm-club
Время раздачи: 24/7 (до 7 скачавших)
[NNM-Club.ru]_Nikogda.ne.sdavaisya.2008.D.BDRip.1.45GB_by_Yarmak23.avi.torrent
 Торрент: Платиновая раздача  Зарегистрирован
 
Скачать


Примагнититься
 Зарегистрирован:   08 Мар 2013 14:09:33
 Размер:   1,46 GB  (
 Рейтинг:   4,9 (Голосов: 99)
 Поблагодарили:   351
 Проверка:   Оформление проверено модератором 10 Мар 2013 14:13:21
Как cкачать  ·  Как раздать  ·  Правильно оформить  ·  Поднять ратио!  
Yarmak23 ®
Стаж: 8 лет 10 мес.
Сообщений: 354
Ratio: 33,836
Раздал: 3,697 TB
Поблагодарили: 64045
100%
russia.gif
Никогда не сдавайся / Never Back Down (2008) HDRip
здесь тоже расширенная версия, но на эти места нет перевода в рипе 1.37 гб. (сэмплы с расширенных мест):
мой сэмпл http://multi-up.com/840363
конк. http://multi-up.com/840362
tartarelin
Стаж: 9 лет 1 мес.
Сообщений: 248
Ratio: 180,808
100%
ну такое себе, может если бы мне было лет 16, тогда зашло бы
Показать сообщения:   
Начать новую тему   Ответить на тему    Торрент-трекер NNM-Club -> Зарубежное кино -> Зарубежные Фильмы (HD*Rip/LQ, DVDRip, SATRip, VHSRip) Часовой пояс: GMT + 3
Страница 1 из 1