Классический форум-трекер
canvas not supported
Нас вместе: 4 233 610

Операция «Арго» / Argo (2012) BDRip [720p] [Расширенная версия/Extended Cut]


 
 
RSS
Начать новую тему   Ответить на тему    Торрент-трекер NNM-Club -> Зарубежное кино -> Зарубежные Фильмы (HD, FHD)
Автор Сообщение
4ELLENGER ®
Стаж: 13 лет 2 мес.
Сообщений: 320
Ratio: 133.302
Поблагодарили: 99725
100%
ukraine.gif
Операция «Арго» / Argo (2012) BDRip [720p] [Расширенная версия/Extended Cut]
Русское название: Операция «Арго»
Оригинальное название: Argo
Год выпуска: 2012
Жанр: триллер, драма, история

Описание фильма:
4 ноября 1979 г. революция в Иране достигает своего апогея, исламисты штурмуют посольство США в Тегеране и берут в заложники 52 американца. Но в этом хаосе шестерым удается ускользнуть и найти прибежище в доме канадского посла. Понимая, что их обнаружение и, вероятнее всего, убийство - всего лишь вопрос времени, Тони Мендес, специалист ЦРУ по тайному вывозу людей из страны, предлагает рискованный план безопасной эвакуации. План столь невероятен, что такое бывает только в кино.

Режиссер: Бен Аффлек
Актеры: Бен Аффлек, Брайан Крэнстон, Алан Аркин, Джон Гудмен, Виктор Гарбер, Тейт Донован, Клеа Дюваль, Скут МакНэйри, Рори Кокрейн, Кристофер Денхам

Продолжительность: 02:09:36
Перевод: Одноголосый закадровый [Ю.Сербин]
Язык субтитров: English (forced), English
Вид субтитров: Вшитые отключаемые



Дата мировой премьеры: 31 августа 2012
Дата российской премьеры: 8 ноября 2012, «Каро-Премьер»
Дата выхода DVD релиза: 14 февраля 2013, «CP Дистрибуция»,
Дата выхода Blu-Ray релиза: 14 февраля 2013, «CP Дистрибуция»,

Видеокодек: MPEG-4 AVC/H.264
Битрейт видео: ~8696 Kb/s
Размер кадра: 1280x534
Качество видео: BDRip
Аудио 1: Русский: DTS, 6 ch, 1536 Кбит/с - Одноголосый закадровый [Ю.Сербин]
Аудио 2: Английский: DTS, 6 ch, 1536 Кбит/с - оригинал

Цитата:
Сохранены оригинальные чаптеры как на Blu-ray.
Расширенная версия фильма (длиннее театральной примерно на 9 минут).


Релиз группа:
Код: выделить все
Общее
Уникальный идентификатор                 : 178923227510988431510788354169374381913 (0x869B5C33829824DCB80D814E435A1759)
Полное имя                               : D:\Фильмы\Операция «Арго»\Argo.2012.Extended.Cut.720р.BluRay.Rus.Eng.mkv
Формат                                   : Matroska
Версия формата                           : Version 2
Размер файла                             : 10,8 Гбайт
Продолжительность                        : 2 ч. 9 м.
Общий поток                              : 12,0 Мбит/сек
Название фильма                          : Argo (2012) [Extended Cut]
Дата кодирования                         : UTC 2013-03-16 18:55:28
Программа кодирования                    : mkvmerge v5.8.0 ('No Sleep / Pillow') built on Sep  2 2012 15:37:04
Библиотека кодирования                   : libebml v1.2.3 + libmatroska v1.3.0

Видео
Идентификатор                            : 1
Формат                                   : AVC
Формат/Информация                        : Advanced Video Codec
Профиль формата                          : High@L4.1
Параметр CABAC формата                   : Да
Параметр ReFrames формата                : 12 кадров
Идентификатор кодека                     : V_MPEG4/ISO/AVC
Продолжительность                        : 2 ч. 9 м.
Битрейт                                  : 8696 Кбит/сек
Ширина                                   : 1280 пикселей
Высота                                   : 534 пикселя
Соотношение сторон                       : 2,40:1
Режим частоты кадров                     : Постоянный
Частота кадров                           : 23,976 кадра/сек
Цветовое пространство                    : YUV
Субдискретизация насыщенности            : 4:2:0
Битовая глубина                          : 8 бит
Тип развёртки                            : Прогрессивная
Бит/(Пиксели*Кадры)                      : 0.531
Размер потока                            : 7,87 Гбайт (73%)
Заголовок                                : Release for HDCLUB by doclogan
Библиотека кодирования                   : x264 core 129 r2245 bc13772
Настройки программы                      : cabac=1 / ref=12 / deblock=1:-3:-3 / analyse=0x3:0x113 / me=tesa / subme=11 / psy=1 / psy_rd=1.15:0.00 / mixed_ref=1 / me_range=16 / chroma_me=1 / trellis=2 / 8x8dct=1 / cqm=0 / deadzone=21,11 / fast_pskip=0 / chroma_qp_offset=-2 / threads=12 / lookahead_threads=2 / sliced_threads=0 / nr=0 / decimate=0 / interlaced=0 / bluray_compat=0 / constrained_intra=0 / bframes=9 / b_pyramid=2 / b_adapt=2 / b_bias=0 / direct=3 / weightb=1 / open_gop=0 / weightp=2 / keyint=250 / keyint_min=23 / scenecut=40 / intra_refresh=0 / rc=crf / mbtree=0 / crf=16.2 / qcomp=0.70 / qpmin=0 / qpmax=69 / qpstep=4 / ip_ratio=1.40 / pb_ratio=1.30 / aq=1:0.70
Язык                                     : English
Default                                  : Да
Forced                                   : Нет

Аудио #1
Идентификатор                            : 2
Формат                                   : DTS
Формат/Информация                        : Digital Theater Systems
Режим                                    : 16
Параметр Endianness формата              : Big
Идентификатор кодека                     : A_DTS
Продолжительность                        : 2 ч. 9 м.
Вид битрейта                             : Постоянный
Битрейт                                  : 1509 Кбит/сек
Каналы                                   : 6 каналов
Расположение каналов                     : Front: L C R, Side: L R, LFE
Частота                                  : 48,0 КГц
Битовая глубина                          : 24 бит
Метод сжатия                             : С потерями
Размер потока                            : 1,37 Гбайт (13%)
Заголовок                                : DTS 5.1 @ 1.5 Mbps – Одноголосый закадровый (Ю.Сербин)
Язык                                     : Russian
Default                                  : Да
Forced                                   : Нет

Аудио #2
Идентификатор                            : 3
Формат                                   : DTS
Формат/Информация                        : Digital Theater Systems
Режим                                    : 16
Параметр Endianness формата              : Big
Идентификатор кодека                     : A_DTS
Продолжительность                        : 2 ч. 9 м.
Вид битрейта                             : Постоянный
Битрейт                                  : 1509 Кбит/сек
Каналы                                   : 6 каналов
Расположение каналов                     : Front: L C R, Side: L R, LFE
Частота                                  : 48,0 КГц
Битовая глубина                          : 24 бит
Метод сжатия                             : С потерями
Размер потока                            : 1,37 Гбайт (13%)
Заголовок                                : DTS 5.1 @ 1.5 Mbps
Язык                                     : English
Default                                  : Нет
Forced                                   : Нет

Текст #1
Идентификатор                            : 4
Формат                                   : UTF-8
Идентификатор кодека                     : S_TEXT/UTF8
Идентификатор кодека/Информация          : UTF-8 Plain Text
Заголовок                                : forced
Язык                                     : English
Default                                  : Да
Forced                                   : Нет

Текст #2
Идентификатор                            : 5
Формат                                   : UTF-8
Идентификатор кодека                     : S_TEXT/UTF8
Идентификатор кодека/Информация          : UTF-8 Plain Text
Язык                                     : English
Default                                  : Нет
Forced                                   : Нет

Меню
00:00:00.000                             : en:00:00:00.000
00:12:39.717                             : en:00:12:39.717
00:22:15.459                             : en:00:22:15.459
00:33:33.345                             : en:00:33:33.345
00:50:10.299                             : en:00:50:10.299
00:58:35.262                             : en:00:58:35.262
01:08:33.776                             : en:01:08:33.776
01:17:43.242                             : en:01:17:43.242
01:28:20.545                             : en:01:28:20.545
01:39:18.160                             : en:01:39:18.160
01:48:04.895                             : en:01:48:04.895
02:00:48.116                             : en:02:00:48.116
Скриншоты:


Операция «Арго» на NNM-club

Время раздачи: 24/7 (до 10 скачавших)
[NNM-Club.ru]_Argo.2012.Extended.Cut.720r.BluRay.Rus.Eng.mkv.torrent
 Торрент: Платиновая раздача  Зарегистрирован
 
Скачать


 Зарегистрирован:   17 Мар 2013 12:21:34
 Размер:   10.8 GB  (
 Рейтинг:   4.3 (Голосов: 62)
 Поблагодарили:   212
 Проверка:   Оформление проверено модератором 17 Мар 2013 13:02:42
Как cкачать  ·  Как раздать  ·  Правильно оформить  ·  Поднять ратио!  
pokkk92
Стаж: 11 лет 7 мес.
Сообщений: 899
Ratio: 6.308
Поблагодарили: 135
100%
Откуда: System32\​Днепропет​ровск​
ukraine.gif
Хороший фильм. Всем рекомендую. :респект:
Да еще на реальных событиях. :шок:
Люблю реальные фильмы :стеб:
pryu1967
Стаж: 9 лет 9 мес.
Сообщений: 180
Ratio: 8.925
Раздал: 2.48 TB
99.16%
Откуда: Брянск
russia.gif
Фильм класс,просто смотря,думайте!!!Приятного кино.
fotolomatel
Стаж: 10 лет 5 мес.
Сообщений: 8
Ratio: 5.481
1.98%
Фильм понравился. Советую посмотреть.
Показать сообщения:   
Начать новую тему   Ответить на тему    Торрент-трекер NNM-Club -> Зарубежное кино -> Зарубежные Фильмы (HD, FHD) Часовой пояс: GMT + 3
Страница 1 из 1