Классический форум-трекер
canvas not supported
Нас вместе: 4 210 548

BBC. Йеллоустоун. Битва за жизнь / Yellowstone. Battle for life (2009) BDRip [H.264/720p] [3 серии из 3]


 
 
RSS
Начать новую тему   Ответить на тему    Торрент-трекер NNM-Club -> Зарубежные TV-бренды -> BBC
Автор Сообщение
Отец Лоренцо ®
Uploader 1000+, Сталкер
Стаж: 10 лет 11 мес.
Сообщений: 4039
Ratio: 7393.141
Раздал: 1.0172 PB
Поблагодарили: 123360
100%
Откуда: Харьков, Украина
BBC. Йеллоустоун. Битва за жизнь / Yellowstone. Battle for life (2009) BDRip [H.264/720p] [3 серии из 3]
Русское название: BBC. Йеллоустоун. Битва за жизнь
Оригинальное название: Yellowstone. Battle for life
Страна: Великобритания
Режиссер / Телекомпания: Эндрю Мюррей / BBC, Animal Planet, CO-Production
Год выпуска: 2009
Жанр: документальный

Описание: На этой земле красоты и риска жизненные драмы и судьбы животных неразрывно связаны. Познайте и прочувствуйте величие и очарование Йеллоустоуна. Великолепие этого уникального места в полной мере раскрывается историями обитания местных диких животных, ведущих борьбу за существование на протяжении трех последовательно меняющих друг друга времен года.

Продолжительность: 00:49:14 + 00:48:59 + 00:49:13

Перевод: Профессиональный одноголосый

Видеокодек: MPEG-4 AVC/H.264
Битрейт видео: ~ 6 170 ... 7 880 Кбит/с
Размер кадра: 1280x720
Качество видео: BDRip [720p]
Аудио:
1. [русский] DTS, 6 ch, 48 kHz/24-bit, ~1510.00 kbps
2. [английский] DTS, 6 ch, 48 kHz/24-bit, ~1510.00 kbps
Субтитры: русские, английские
General
Unique ID : 179018147842275327121625972134230840637 (0x86ADA4228689C64DA00C60FE2BC3553D)
Complete name : A:\MUSOR\BBC.Yellowstone.Battle.for.life.(3.serii.iz.3).2009.x264.BDRip.720p\BBC.Yellowstone.Battle.for.life.(1.iz.3).mkv
Format : Matroska
Format version : Version 2
File size : 3.22 GiB
Duration : 49mn 14s
Overall bit rate : 9 376 Kbps
Movie name : Yellowstone. Winter (2009) - Release for HDCLUB by Skazhutin
Encoded date : UTC 2012-03-28 07:17:50
Writing application : mkvmerge v5.4.0 ('Piper') built on Mar 10 2012 13:34:39
Writing library : libebml v1.2.3 + libmatroska v1.3.0
Attachment : Yes / Yes

Video
ID : 1
Format : AVC
Format/Info : Advanced Video Codec
Format profile : High@L4.1
Format settings, CABAC : Yes
Format settings, ReFrames : 8 frames
Codec ID : V_MPEG4/ISO/AVC
Duration : 49mn 14s
Bit rate : 6 170 Kbps
Width : 1 280 pixels
Height : 720 pixels
Display aspect ratio : 16:9
Frame rate : 29.970 fps
Color space : YUV
Chroma subsampling : 4:2:0
Bit depth : 8 bits
Scan type : Progressive
Bits/(Pixel*Frame) : 0.223
Stream size : 2.12 GiB (66%)
Title : Release for HDCLUB
Writing library : x264 core 122 r2184kMod 5c85e0a
Encoding settings : cabac=1 / ref=8 / deblock=1:-3:-3 / analyse=0x3:0x113 / me=umh / subme=11 / psy=1 / fade_compensate=0.00 / psy_rd=1.00:0.10 / mixed_ref=1 / me_range=48 / chroma_me=1 / trellis=2 / 8x8dct=1 / cqm=0 / deadzone=21,11 / fast_pskip=1 / chroma_qp_offset=-3 / threads=12 / sliced_threads=0 / nr=0 / decimate=1 / interlaced=0 / bluray_compat=0 / constrained_intra=0 / bframes=12 / b_pyramid=2 / b_adapt=2 / b_bias=0 / direct=1 / weightb=1 / open_gop=0 / weightp=2 / keyint=250 / keyint_min=23 / scenecut=40 / intra_refresh=0 / rc_lookahead=40 / rc=crf / mbtree=0 / crf=17.5000 / qcomp=0.65 / qpmin=0 / qpmax=69 / qpstep=4 / vbv_maxrate=50000 / vbv_bufsize=62500 / crf_max=0.0 / nal_hrd=none / ip_ratio=1.40 / pb_ratio=1.30 / aq=3:0.90
Language : English
Default : Yes
Forced : No
Matrix coefficients : BT.709-5, BT.1361, IEC 61966-2-4 709, SMPTE RP177

Audio #1
ID : 2
Format : DTS
Format/Info : Digital Theater Systems
Codec ID : A_DTS
Duration : 49mn 14s
Bit rate mode : Constant
Bit rate : 1 510 Kbps
Channel(s) : 6 channels
Channel positions : Front: L C R, Side: L R, LFE
Sampling rate : 48.0 KHz
Bit depth : 24 bits
Compression mode : Lossy
Stream size : 532 MiB (16%)
Title : DTS 5.1 @ 1536 kbps - Одноголосый, В. Курдов
Language : Russian
Default : Yes
Forced : No

Audio #2
ID : 3
Format : DTS
Format/Info : Digital Theater Systems
Codec ID : A_DTS
Duration : 49mn 14s
Bit rate mode : Constant
Bit rate : 1 510 Kbps
Channel(s) : 6 channels
Channel positions : Front: L C R, Side: L R, LFE
Sampling rate : 48.0 KHz
Bit depth : 24 bits
Compression mode : Lossy
Stream size : 532 MiB (16%)
Title : DTS 5.1 @ 1536 kbps
Language : English
Default : No
Forced : No

Text #1
ID : 4
Format : UTF-8
Codec ID : S_TEXT/UTF8
Codec ID/Info : UTF-8 Plain Text
Language : Russian
Default : No
Forced : No

Text #2
ID : 5
Format : UTF-8
Codec ID : S_TEXT/UTF8
Codec ID/Info : UTF-8 Plain Text
Language : English
Default : No
Forced : No

Menu
00:00:00.000 : en:Chapter 1
00:06:50.143 : en:Chapter 2
00:14:19.725 : en:Chapter 3
00:27:47.932 : en:Chapter 4
00:34:48.352 : en:Chapter 5
00:41:46.237 : en:Chapter 6
General
Unique ID : 254359915750825992738222670962383360800 (0xBF5BF0164218C1C894CE1C1B01EF9320)
Complete name : A:\MUSOR\BBC.Yellowstone.Battle.for.life.(3.serii.iz.3).2009.x264.BDRip.720p\BBC.Yellowstone.Battle.for.life.(2.iz.3).mkv
Format : Matroska
Format version : Version 2
File size : 3.81 GiB
Duration : 48mn 59s
Overall bit rate : 11.1 Mbps
Movie name : Yellowstone. Summer (2009) - Release for HDCLUB by Skazhutin
Encoded date : UTC 2012-03-28 07:04:51
Writing application : mkvmerge v5.4.0 ('Piper') built on Mar 10 2012 13:34:39
Writing library : libebml v1.2.3 + libmatroska v1.3.0
Attachment : Yes / Yes

Video
ID : 1
Format : AVC
Format/Info : Advanced Video Codec
Format profile : High@L4.1
Format settings, CABAC : Yes
Format settings, ReFrames : 8 frames
Codec ID : V_MPEG4/ISO/AVC
Duration : 48mn 59s
Bit rate : 7 881 Kbps
Width : 1 280 pixels
Height : 720 pixels
Display aspect ratio : 16:9
Frame rate : 29.970 fps
Color space : YUV
Chroma subsampling : 4:2:0
Bit depth : 8 bits
Scan type : Progressive
Bits/(Pixel*Frame) : 0.285
Stream size : 2.70 GiB (71%)
Title : Release for HDCLUB
Writing library : x264 core 122 r2184kMod 5c85e0a
Encoding settings : cabac=1 / ref=8 / deblock=1:-3:-3 / analyse=0x3:0x113 / me=umh / subme=11 / psy=1 / fade_compensate=0.00 / psy_rd=1.00:0.10 / mixed_ref=1 / me_range=48 / chroma_me=1 / trellis=2 / 8x8dct=1 / cqm=0 / deadzone=21,11 / fast_pskip=1 / chroma_qp_offset=-3 / threads=12 / sliced_threads=0 / nr=0 / decimate=1 / interlaced=0 / bluray_compat=0 / constrained_intra=0 / bframes=12 / b_pyramid=2 / b_adapt=2 / b_bias=0 / direct=1 / weightb=1 / open_gop=0 / weightp=2 / keyint=250 / keyint_min=23 / scenecut=40 / intra_refresh=0 / rc_lookahead=40 / rc=crf / mbtree=0 / crf=17.5000 / qcomp=0.65 / qpmin=0 / qpmax=69 / qpstep=4 / vbv_maxrate=50000 / vbv_bufsize=62500 / crf_max=0.0 / nal_hrd=none / ip_ratio=1.40 / pb_ratio=1.30 / aq=3:0.90
Language : English
Default : Yes
Forced : No
Matrix coefficients : BT.709-5, BT.1361, IEC 61966-2-4 709, SMPTE RP177

Audio #1
ID : 2
Format : DTS
Format/Info : Digital Theater Systems
Codec ID : A_DTS
Duration : 48mn 59s
Bit rate mode : Constant
Bit rate : 1 510 Kbps
Channel(s) : 6 channels
Channel positions : Front: L C R, Side: L R, LFE
Sampling rate : 48.0 KHz
Bit depth : 24 bits
Compression mode : Lossy
Stream size : 529 MiB (14%)
Title : DTS 5.1 @ 1536 kbps - Одноголосый, В. Курдов
Language : Russian
Default : Yes
Forced : No

Audio #2
ID : 3
Format : DTS
Format/Info : Digital Theater Systems
Codec ID : A_DTS
Duration : 48mn 59s
Bit rate mode : Constant
Bit rate : 1 510 Kbps
Channel(s) : 6 channels
Channel positions : Front: L C R, Side: L R, LFE
Sampling rate : 48.0 KHz
Bit depth : 24 bits
Compression mode : Lossy
Stream size : 529 MiB (14%)
Title : DTS 5.1 @ 1536 kbps
Language : English
Default : No
Forced : No

Text #1
ID : 4
Format : UTF-8
Codec ID : S_TEXT/UTF8
Codec ID/Info : UTF-8 Plain Text
Language : Russian
Default : No
Forced : No

Text #2
ID : 5
Format : UTF-8
Codec ID : S_TEXT/UTF8
Codec ID/Info : UTF-8 Plain Text
Language : English
Default : No
Forced : No

Menu
00:00:00.000 : en:Chapter 1
00:07:58.044 : en:Chapter 2
00:15:57.189 : en:Chapter 3
00:24:09.881 : en:Chapter 4
00:33:34.612 : en:Chapter 5
00:39:43.981 : en:Chapter 6
General
Unique ID : 172646583024809933160441610948657867424 (0x81E285BC4AD16E19B9AF7859B04CEAA0)
Complete name : A:\MUSOR\BBC.Yellowstone.Battle.for.life.(3.serii.iz.3).2009.x264.BDRip.720p\BBC.Yellowstone.Battle.for.life.(3.iz.3).mkv
Format : Matroska
Format version : Version 2
File size : 3.82 GiB
Duration : 49mn 13s
Overall bit rate : 11.1 Mbps
Movie name : Yellowstone. Autumn (2009) - Release for HDCLUB by Skazhutin
Encoded date : UTC 2012-03-28 10:12:23
Writing application : mkvmerge v5.4.0 ('Piper') built on Mar 10 2012 13:34:39
Writing library : libebml v1.2.3 + libmatroska v1.3.0
Attachment : Yes / Yes

Video
ID : 1
Format : AVC
Format/Info : Advanced Video Codec
Format profile : High@L4.1
Format settings, CABAC : Yes
Format settings, ReFrames : 8 frames
Codec ID : V_MPEG4/ISO/AVC
Duration : 49mn 13s
Bit rate : 7 862 Kbps
Width : 1 280 pixels
Height : 720 pixels
Display aspect ratio : 16:9
Frame rate : 29.970 fps
Color space : YUV
Chroma subsampling : 4:2:0
Bit depth : 8 bits
Scan type : Progressive
Bits/(Pixel*Frame) : 0.285
Stream size : 2.70 GiB (71%)
Title : Release for HDCLUB
Writing library : x264 core 122 r2184kMod 5c85e0a
Encoding settings : cabac=1 / ref=8 / deblock=1:-3:-3 / analyse=0x3:0x113 / me=umh / subme=11 / psy=1 / fade_compensate=0.00 / psy_rd=1.00:0.10 / mixed_ref=1 / me_range=48 / chroma_me=1 / trellis=2 / 8x8dct=1 / cqm=0 / deadzone=21,11 / fast_pskip=1 / chroma_qp_offset=-3 / threads=12 / sliced_threads=0 / nr=0 / decimate=1 / interlaced=0 / bluray_compat=0 / constrained_intra=0 / bframes=16 / b_pyramid=2 / b_adapt=2 / b_bias=0 / direct=1 / weightb=1 / open_gop=0 / weightp=2 / keyint=250 / keyint_min=23 / scenecut=40 / intra_refresh=0 / rc_lookahead=40 / rc=crf / mbtree=0 / crf=17.5000 / qcomp=0.65 / qpmin=0 / qpmax=69 / qpstep=4 / vbv_maxrate=50000 / vbv_bufsize=62500 / crf_max=0.0 / nal_hrd=none / ip_ratio=1.40 / pb_ratio=1.30 / aq=3:0.90
Language : English
Default : Yes
Forced : No
Matrix coefficients : BT.709-5, BT.1361, IEC 61966-2-4 709, SMPTE RP177

Audio #1
ID : 2
Format : DTS
Format/Info : Digital Theater Systems
Codec ID : A_DTS
Duration : 49mn 13s
Bit rate mode : Constant
Bit rate : 1 510 Kbps
Channel(s) : 6 channels
Channel positions : Front: L C R, Side: L R, LFE
Sampling rate : 48.0 KHz
Bit depth : 24 bits
Compression mode : Lossy
Stream size : 531 MiB (14%)
Title : DTS 5.1 @ 1536 kbps - Одноголосый, В. Курдов
Language : Russian
Default : Yes
Forced : No

Audio #2
ID : 3
Format : DTS
Format/Info : Digital Theater Systems
Codec ID : A_DTS
Duration : 49mn 13s
Bit rate mode : Constant
Bit rate : 1 510 Kbps
Channel(s) : 6 channels
Channel positions : Front: L C R, Side: L R, LFE
Sampling rate : 48.0 KHz
Bit depth : 24 bits
Compression mode : Lossy
Stream size : 531 MiB (14%)
Title : DTS 5.1 @ 1536 kbps
Language : English
Default : No
Forced : No

Text #1
ID : 4
Format : UTF-8
Codec ID : S_TEXT/UTF8
Codec ID/Info : UTF-8 Plain Text
Language : Russian
Default : No
Forced : No

Text #2
ID : 5
Format : UTF-8
Codec ID : S_TEXT/UTF8
Codec ID/Info : UTF-8 Plain Text
Language : English
Default : No
Forced : No

Menu
00:00:00.000 : en:Chapter 1
00:07:17.136 : en:Chapter 2
00:14:44.383 : en:Chapter 3
00:25:47.579 : en:Chapter 4
00:34:13.684 : en:Chapter 5
00:42:15.566 : en:Chapter 6
Описание серий:
Продолжительность: 00:49:14

Видеокодек: MPEG-4 AVC/H.264
Битрейт видео: ~ 6 170 Кбит/с
Размер кадра: 1280x720
Качество видео: BDRip [720p]
Аудио:
1. [русский] DTS, 6 ch, 48 kHz/24-bit, ~1510.00 kbps
2. [английский] DTS, 6 ch, 48 kHz/24-bit, ~1510.00 kbps
Субтитры: русские, английские

Скриншоты:

Продолжительность: 00:48:59

Видеокодек: MPEG-4 AVC/H.264
Битрейт видео: ~ 7 881 Кбит/с
Размер кадра: 1280x720
Качество видео: BDRip [720p]
Аудио:
1. [русский] DTS, 6 ch, 48 kHz/24-bit, ~1510.00 kbps
2. [английский] DTS, 6 ch, 48 kHz/24-bit, ~1510.00 kbps
Субтитры: русские, английские

Скриншоты:

Продолжительность: 00:49:13

Видеокодек: MPEG-4 AVC/H.264
Битрейт видео: ~ 7 862 Кбит/с
Размер кадра: 1280x720
Качество видео: BDRip [720p]
Аудио:
1. [русский] DTS, 6 ch, 48 kHz/24-bit, ~1510.00 kbps
2. [английский] DTS, 6 ch, 48 kHz/24-bit, ~1510.00 kbps
Субтитры: русские, английские

Скриншоты:

Скриншоты:




Пожалуйста, не уходите с раздачи - помогите докачать другим. Если понравился релиз - жмите кнопку "Спасибо"! :приветствую:


Время раздачи: 24 / 7

"BBC. Yellowstone. Battle for life" на NoNaMe Club
[NNM-Club.ru]_BBC.Yellowstone.Battle.for.life.(3.serii.iz.3).2009.x264.BDRip.720p.torrent
 Торрент: Платиновая раздача  Зарегистрирован
 
Скачать


 Зарегистрирован:   06 Апр 2013 20:53:41
 Размер:   10.8 GB  (
 Рейтинг:   4.8 (Голосов: 40)
 Поблагодарили:   191
 Проверка:   Оформление проверено модератором 06 Апр 2013 20:55:06
Как cкачать  ·  Как раздать  ·  Правильно оформить  ·  Поднять ратио!  
kryl1411
Стаж: 11 лет 1 мес.
Сообщений: 487
Ratio: 75.608
Раздал: 31.45 TB
Поблагодарили: 25241
100%
russia.gif
Плохо , что аудио в DTS , на телеке не пойдет , а переконвертировать не каждый умеет ...
aleksei123321
Стаж: 13 лет
Сообщений: 65
Ratio: 2.341
Раздал: 2.643 TB
100%
Откуда: Владивосток
ussr.gif
да,про dts и телик верно замечено. у меня такая дорожка идет,но каждые 4 секунды шипящий звук появлется.
Отец Лоренцо ®
Uploader 1000+, Сталкер
Стаж: 10 лет 11 мес.
Сообщений: 4039
Ratio: 7393.141
Раздал: 1.0172 PB
Поблагодарили: 123360
100%
Откуда: Харьков, Украина
kryl1411 писал(а): Перейти к сообщению
Плохо , что аудио в DTS , на телеке не пойдет , а переконвертировать не каждый умеет ...

Видимо, это зависит от параметров ТВ.
Я все обычно смотрю через HDPlayer, который соединен с ТВ через HDMI - практически никогда проблем не возникало ни с изображением ни со звуком.
Сейчас специально скопировал одну из серий на флэшку и для проверки воспроизвел напрямую через встроенный плеер ТВ - тоже никаких проблем. Есть звук - обе аудиодорожки воспроизводятся без проблем. :незнает:

PS. ТВ - Samsung UE37D5000PW (ему примерно 2 года)
Седьмой
Стаж: 11 лет 3 мес.
Сообщений: 410
Ratio: 6.442
Раздал: 3.39 TB
Поблагодарили: 586
100%
Откуда: Хабаровск
russia.gif
его можно кодировать с помощью format factory, но только с одной аудио дорожкой. в настройках видео поставить видео кодек "copy", всё остальное по умолчанию и автоматически. а аудио поток настраивайте на ваше усмотрение, если не знаете что, то поставьте мп3, его всё поддерживает, да и для телика сойдёт.

второй способ.
разбираете видео файл с помощью eac3to, в нём же и конвертируете аудио. потом уже конвертированные аудио и видео файлы запаковываете с помощью MKVtoolnix. и всё
kryl1411
Стаж: 11 лет 1 мес.
Сообщений: 487
Ratio: 75.608
Раздал: 31.45 TB
Поблагодарили: 25241
100%
russia.gif
Седьмой писал(а): Перейти к сообщению
его можно кодировать с помощью format factory, но только с одной аудио дорожкой. в настройках видео поставить видео кодек "copy", всё остальное по умолчанию и автоматически. а аудио поток настраивайте на ваше усмотрение, если не знаете что, то поставьте мп3, его всё поддерживает, да и для телика сойдёт.

второй способ.
разбираете видео файл с помощью eac3to, в нём же и конвертируете аудио. потом уже конвертированные аудио и видео файлы запаковываете с помощью MKVtoolnix. и всё


Да , я то это , Вы знаете , 100 человек попробуют перекодировать, а 1000 человек качать не будут ...
Для простого обывателя танцы с бубном думаю не нужны ...
Мое мнение если это рип , то он должен идти на любом оборудовании .
А если рипер поленился сделать аудио читаемое любым оборудованием , то за это ему МИНУС !!!
К примеру если смотреть через HDMI или на компе, то рипы не нужны ... лучше скачать BDRemux .
Седьмой
Стаж: 11 лет 3 мес.
Сообщений: 410
Ratio: 6.442
Раздал: 3.39 TB
Поблагодарили: 586
100%
Откуда: Хабаровск
russia.gif
kryl1411 писал(а): Перейти к сообщению
Седьмой писал(а): Перейти к сообщению
его можно кодировать с помощью format factory, но только с одной аудио дорожкой. в настройках видео поставить видео кодек "copy", всё остальное по умолчанию и автоматически. а аудио поток настраивайте на ваше усмотрение, если не знаете что, то поставьте мп3, его всё поддерживает, да и для телика сойдёт.

второй способ.
разбираете видео файл с помощью eac3to, в нём же и конвертируете аудио. потом уже конвертированные аудио и видео файлы запаковываете с помощью MKVtoolnix. и всё


Да , я то это , Вы знаете , 100 человек попробуют перекодировать, а 1000 человек качать не будут ...
Для простого обывателя танцы с бубном думаю не нужны ...
Мое мнение если это рип , то он должен идти на любом оборудовании .
А если рипер поленился сделать аудио читаемое любым оборудованием , то за это ему МИНУС !!!
К примеру если смотреть через HDMI или на компе, то рипы не нужны ... лучше скачать BDRemux .


Эту раздачу в любом случае если 100 человек скачают, уже хорошо. а о тысячи даже не зарекайся. я например её качать не собираюсь

Добавлено спустя 10 минут 33 секунды:

И кстати! он же не модератор видео, чтобы супер пупер рип забобахать. сделал как смог. я обычно когда ремуксы делаю, мне потом модер мозг выносит, типа в ремуксе должны присутствовать все возможные аудио дорожки всяких там переводчиков, а не только оф перевод, при этом забывая, что задача ремукса уменьшение веса, а не увеличение его на 10 гигов по сравнению с блюрэй
andrey-047
Стаж: 12 лет 4 мес.
Сообщений: 66
Ratio: 7.415
Раздал: 8.618 TB
Поблагодарили: 88
100%
russia.gif
kryl1411 писал(а): Перейти к сообщению
Плохо , что аудио в DTS , на телеке не пойдет , а переконвертировать не каждый умеет ...


Очень просто видео в DVD конвертируется программкой: ConvertXtoDVD 4 Я её здесь же скачал :да:
Libereitor
Стаж: 12 лет 9 мес.
Сообщений: 9
Ratio: 2.237
100%
russia.gif
Freemake Video Converter можно даже обезьян и медведей научить ,ибо там всё просто.
аристархиЙ
Стаж: 12 лет 8 мес.
Сообщений: 14
Ratio: 5.503
100%
Видео супер. Автору раздачи спасибо.
Марк_2_Серж
Стаж: 10 лет 8 мес.
Сообщений: 10
Ratio: 12.382
100%
Хороший познавательный фильм. Спасибо, автору, за релиз.
Показать сообщения:   
Начать новую тему   Ответить на тему    Торрент-трекер NNM-Club -> Зарубежные TV-бренды -> BBC Часовой пояс: GMT + 3
Страница 1 из 1