Классический форум-трекер
canvas not supported
Нас вместе: 4 205 680

В смятении / Dans la Tourmente (2011) DVDRip


 
 
RSS
Начать новую тему   Ответить на тему    Торрент-трекер NNM-Club -> Зарубежное кино -> Зарубежные Фильмы (SD)
Автор Сообщение
ducha65 ®
Стаж: 10 лет 5 мес.
Сообщений: 892
Ratio: 452.258
Поблагодарили: 190420
100%
Откуда: из народа
russia.gif
В смятении / Dans la Tourmente (2011) DVDRip
Русское название: В смятении
Оригинальное название: Dans la Tourmente
Год выпуска: 2011
Производство: Франция
Жанр: Триллер, Драма

Описание фильма:
Бизнесмен в окрестностях Марселя принимает решение о передислокации своего завода, ничего не сказав об этом своим рабочим. За неделю об этом узнает один из будущих безработных Франк, который вместе со своим другом решается пойти на отчаянное дело...

Режиссер: Кристоф Ружжиа
Актеры: Кловис Корнийак, Матильда Сенье, Иван Атталь, Селин Салетт, Марк Брюне

Продолжительность: 01:43:05
Перевод: Двуголосый закадровый, профессиональный



Дата мировой премьеры: 7 ноября 2011

Видеокодек: Xvid
Битрейт видео: ~1438 kb/s
Размер кадра: 608x336
Качество видео: DVDRip
Аудио 1: МР3, 128 kb/s, 2.0, Русский
Аудио 2: АС3, 448 kb/s, 5.1, Французский
Общее
Полное имя : C:\Торренты\В смятении.2011.DVDRip.avi
Формат : AVI
Формат/Информация : Audio Video Interleave
Размер файла : 1,46 Гбайт
Продолжительность : 1 ч. 43 м.
Общий поток : 2028 Кбит/сек
Программа кодирования : VirtualDubMod 1.5.10.3 (build 2550/release)
Библиотека кодирования : VirtualDubMod build 2550/release

Видео
Идентификатор : 0
Формат : MPEG-4 Visual
Профиль формата : Advanced Simple@L5
Параметр BVOP формата : 1
Параметр QPel формата : Нет
Параметр GMC формата : Без точки перехода
Параметр матрицы формата : Default (MPEG)
Режим смешивания : Сжатый битовый поток
Идентификатор кодека : XVID
Идентификатор кодека/Подсказка : XviD
Продолжительность : 1 ч. 43 м.
Битрейт : 1438 Кбит/сек
Ширина : 608 пикселей
Высота : 336 пикселей
Соотношение сторон : 16:9
Частота кадров : 25,000 кадров/сек
Цветовое пространство : YUV
Субдискретизация насыщенности : 4:2:0
Битовая глубина : 8 бит
Тип развёртки : Прогрессивная
Метод сжатия : С потерями
Бит/(Пиксели*Кадры) : 0.282
Размер потока : 1,04 Гбайт (71%)
Библиотека кодирования : XviD 1.2.0.dev47 (UTC 2006-11-01)

Аудио #1
Идентификатор : 1
Формат : MPEG Audio
Версия формата : Version 1
Профиль формата : Layer 3
Режим : Joint stereo
Расширение режима : MS Stereo
Идентификатор кодека : 55
Идентификатор кодека/Подсказка : MP3
Продолжительность : 1 ч. 43 м.
Вид битрейта : Постоянный
Битрейт : 128 Кбит/сек
Каналы : 2 канала
Частота : 48,0 КГц
Метод сжатия : С потерями
Размер потока : 94,4 Мбайт (6%)
Выравнивание : Соединение по промежуткам
Продолжительность промежутка : 40 мс. (1,00 видеокадр)
Время предзагрузки промежутка : 504 мс.

Аудио #2
Идентификатор : 2
Формат : AC-3
Формат/Информация : Audio Coding 3
Расширение режима : CM (complete main)
Параметр Endianness формата : Big
Идентификатор кодека : 2000
Продолжительность : 1 ч. 43 м.
Вид битрейта : Постоянный
Битрейт : 448 Кбит/сек
Каналы : 6 каналов
Расположение каналов : Front: L C R, Side: L R, LFE
Частота : 48,0 КГц
Битовая глубина : 16 бит
Метод сжатия : С потерями
Размер потока : 330 Мбайт (22%)
Выравнивание : Разделение по промежуткам
Продолжительность промежутка : 40 мс. (1,00 видеокадр)
Время предзагрузки промежутка : 500 мс.
Скриншоты:


Время раздачи: с 10.00 до 23.00
[NNM-Club.ru]_V smyatenii.2011.DVDRip.avi.torrent
 Торрент:   Зарегистрирован
 
Зарегистрируйтесь и скачайте торрент!
14.9 KB

Примагнититься
 Зарегистрирован:   16 Апр 2013 20:58:28
 Размер:   1.46 GB  (
 Рейтинг:    (Голосов: 8)
 Поблагодарили:   44
 Проверка:   Оформление проверено модератором 16 Апр 2013 22:05:41
Как cкачать  ·  Как раздать  ·  Правильно оформить  ·  Поднять ратио!  
Показать сообщения:   
Начать новую тему   Ответить на тему    Торрент-трекер NNM-Club -> Зарубежное кино -> Зарубежные Фильмы (SD) Часовой пояс: GMT + 3
Страница 1 из 1