Классический форум-трекер
canvas not supported
Нас вместе: 4 205 664

В смятении / Dans la Tourmente (2011) DVDRip


 
 
RSS
Начать новую тему   Ответить на тему    Торрент-трекер NNM-Club -> Архив торрентов -> Архив Видео
Автор Сообщение
eXPpectant ®
Стаж: 12 лет 10 мес.
Сообщений: 2457
Ratio: 1628.264
Раздал: 18.08 TB
Поблагодарили: 305966
100%
Откуда: Нижний Тагил + Дмитров
russia.gif
В смятении / Dans la Tourmente (2011) DVDRip
Русское название: В смятении
Оригинальное название: Dans la Tourmente
Год выпуска: 2011
Производство: Франция / Bella Ciao, Canal+ [fr], Centre National de la Cinématographie (CNC), Ciné Cinémas
Жанр: Триллер, Драма
Описание фильма:
Бизнесмен в окрестностях Марселя принимает решение о передислокации своего завода, ничего не сказав об этом своим рабочим. За неделю об этом узнает один из будущих безработных Франк, который вместе со своим другом решается пойти на отчаянное дело...
Режиссер: Кристоф Ружжиа
Актеры: Кловис Корнийак, Матильда Сенье, Иван Атталь, Селин Салетт, Марк Брюне
Продолжительность: 01:43:05
Перевод: Двуголосый закадровый, профессиональный

Дата мировой премьеры: 7 ноября 2011
Видеокодек: Xvid
Битрейт видео: ~802 Кбит/с
Размер кадра: 640x272
Качество видео: DVDRip
Аудиокодек: МР3 (2 ch)
Битрейт аудио: 128 Кбит/с
Общее
Полное имя : D:\Торрент раздача\V.smiatenii.2011.XviD.DVDRip.avi
Формат : AVI
Формат/Информация : Audio Video Interleave
Размер файла : 694 Мбайт
Продолжительность : 1 ч. 43 м.
Общий поток : 940 Кбит/сек
Программа кодирования : VirtualDubMod 1.5.10.2 (build 2540/release)
Библиотека кодирования : VirtualDub build 34703/release

Видео
Идентификатор : 0
Формат : MPEG-4 Visual
Профиль формата : Advanced Simple@L5
Параметр BVOP формата : 2
Параметр QPel формата : Нет
Параметр GMC формата : Без точки перехода
Параметр матрицы формата : Default (H.263)
Режим смешивания : Сжатый битовый поток
Идентификатор кодека : XVID
Идентификатор кодека/Подсказка : XviD
Продолжительность : 1 ч. 43 м.
Битрейт : 802 Кбит/сек
Ширина : 640 пикселей
Высота : 272 пикселя
Соотношение сторон : 2,35:1
Частота кадров : 25,000 кадров/сек
Цветовое пространство : YUV
Субдискретизация насыщенности : 4:2:0
Битовая глубина : 8 бит
Тип развёртки : Прогрессивная
Метод сжатия : С потерями
Бит/(Пиксели*Кадры) : 0.184
Размер потока : 592 Мбайт (85%)
Библиотека кодирования : XviD 64

Аудио
Идентификатор : 1
Формат : MPEG Audio
Версия формата : Version 1
Профиль формата : Layer 3
Режим : Joint stereo
Расширение режима : MS Stereo
Идентификатор кодека : 55
Идентификатор кодека/Подсказка : MP3
Продолжительность : 1 ч. 43 м.
Вид битрейта : Постоянный
Битрейт : 128 Кбит/сек
Каналы : 2 канала
Частота : 48,0 КГц
Метод сжатия : С потерями
Размер потока : 94,5 Мбайт (14%)
Выравнивание : Соединение по промежуткам
Продолжительность промежутка : 40 мс. (1,00 видеокадр)
Время предзагрузки промежутка : 504 мс.
Скриншоты:


Время раздачи: 24/7
[NNM-Club.ru]_V.smiatenii.2011.XviD.DVDRip.torrent
 Торрент:   Зарегистрирован
 
Зарегистрируйтесь и скачайте торрент!
13.8 KB

Примагнититься
 Зарегистрирован:   19 Апр 2013 18:53:43
 Размер:   694 MB  (
 Рейтинг:    (Голосов: 6)
 Поблагодарили:   32
 Проверка:   Оформление проверено модератором 21 Апр 2013 07:11:36
Как cкачать  ·  Как раздать  ·  Правильно оформить  ·  Поднять ратио!  
Топик был перенесен из форума Зарубежные Фильмы (HD*Rip/LQ, DVDRip, SATRip, VHSRip) в форум Архив Видео

Причина переноса: Раздающего не было месяц или более
MAG3131
Показать сообщения:   
Начать новую тему   Ответить на тему    Торрент-трекер NNM-Club -> Архив торрентов -> Архив Видео Часовой пояс: GMT + 3
Страница 1 из 1