Классический форум-трекер
canvas not supported
Нас вместе: 4 216 246

Хороший доктор / The Good Doctor (2011) BDRip [720p]


 
 
RSS
Начать новую тему   Ответить на тему    Торрент-трекер NNM-Club -> Зарубежное кино -> Зарубежные Фильмы (HD, FHD)
Автор Сообщение
Jurchic ®
Стаж: 12 лет 5 мес.
Сообщений: 861
Ratio: 289.161
Поблагодарили: 72091
100%
Хороший доктор / The Good Doctor (2011) BDRip

Год выпуска: 2011
Производство: США
Жанр: Триллер, Драма
Описание фильма:
Молодой врач стремится произвести впечатление на свое начальство и коллег. Когда в клинику, где он работает, попадает 18-летняя пациентка с инфекцией почек, доктор вмешивается в ее лечение, чтобы надолго оставить девушку в больнице.
Режиссер: Лэнс Дэйли
Актеры: Орландо Блум, Райли Кеох, Тараджи П. Хенсон, Роб Морроу, Майкл Пенья, Трой Гэрити, Молли Прайс, Уэйд Уильямс, Сорел Кэрредин, Гэри Сервантес ...

Продолжительность: 01:30:49
Перевод: Многоголосый закадровый (лицензия)
Релиз группа: IronClub
Язык субтитров: русские, английские
Вид субтитров: вшитые отключаемые



16+


Дата мировой премьеры: 23 апреля 2011
Дата российской премьеры: 4 апреля 2013, «Другое кино»
Дата выхода DVD релиза: 24 апреля 2013, «Кармен Видео», «Новый Диск»

Видеокодек: MPEG-4 AVC/H.264
Битрейт видео: ~5553 Kbps
Размер кадра: 1280*688
Качество видео: BDRip 720p
Audio #1: AC-3, 6 channels, 384 Kbps, русский
Audio #2: DTS, 6 channels, 1510 Kbps, английский
Код:
General
Unique ID                                : 209158660900860476428543798990385916801 (0x9D5A7E292B48C4A48F8037243BDB2B81)
Complete name                            : :\Horoshij.doktor.2011.P.BDRip.720p.mkv
Format                                   : Matroska
Format version                           : Version 2
File size                                : 4.82 GiB
Duration                                 : 1h 30mn
Overall bit rate                         : 7 597 Kbps
Encoded date                             : UTC 2013-04-20 18:22:19
Writing application                      : mkvmerge v5.2.0 ('I can't explain') built on Dec 18 2011 18:12:03
Writing library                          : libebml v1.2.3 + libmatroska v1.3.0

Video
ID                                       : 1
Format                                   : AVC
Format/Info                              : Advanced Video Codec
Format profile                           : High@L4.1
Format settings, CABAC                   : Yes
Format settings, ReFrames                : 9 frames
Codec ID                                 : V_MPEG4/ISO/AVC
Duration                                 : 1h 30mn
Bit rate                                 : 5 553 Kbps
Width                                    : 1 280 pixels
Height                                   : 688 pixels
Display aspect ratio                     : 1.85:1
Frame rate                               : 23.976 fps
Color space                              : YUV
Chroma subsampling                       : 4:2:0
Bit depth                                : 8 bits
Scan type                                : Progressive
Bits/(Pixel*Frame)                       : 0.263
Stream size                              : 3.52 GiB (73%)
Title                                    : The.Good.Doctor.2011.BluRay.720p.x264.DTS-HDChina
Writing library                          : x264 core 125 r2200 999b753
Encoding settings                        : cabac=1 / ref=9 / deblock=1:-1:-1 / analyse=0x3:0x133 / me=umh / subme=10 / psy=1 / psy_rd=1.00:0.10 / mixed_ref=1 / me_range=32 / chroma_me=1 / trellis=2 / 8x8dct=1 / cqm=0 / deadzone=21,11 / fast_pskip=0 / chroma_qp_offset=-3 / threads=24 / lookahead_threads=4 / sliced_threads=0 / nr=0 / decimate=0 / interlaced=0 / bluray_compat=0 / constrained_intra=0 / bframes=8 / b_pyramid=2 / b_adapt=2 / b_bias=0 / direct=3 / weightb=1 / open_gop=0 / weightp=2 / keyint=360 / keyint_min=24 / scenecut=40 / intra_refresh=0 / rc_lookahead=250 / rc=crf / mbtree=1 / crf=17.5 / qcomp=0.60 / qpmin=0 / qpmax=69 / qpstep=4 / ip_ratio=1.40 / aq=2:1.00
Language                                 : English
Default                                  : Yes
Forced                                   : Yes

Audio #1
ID                                       : 2
Format                                   : AC-3
Format/Info                              : Audio Coding 3
Mode extension                           : CM (complete main)
Format settings, Endianness              : Big
Codec ID                                 : A_AC3
Duration                                 : 1h 30mn
Bit rate mode                            : Constant
Bit rate                                 : 384 Kbps
Channel(s)                               : 6 channels
Channel positions                        : Front: L C R, Side: L R, LFE
Sampling rate                            : 48.0 KHz
Bit depth                                : 16 bits
Compression mode                         : Lossy
Stream size                              : 249 MiB (5%)
Title                                    : DD 5.1 @ 384 kbps - MVO, R5
Language                                 : Russian
Default                                  : Yes
Forced                                   : Yes

Audio #2
ID                                       : 3
Format                                   : DTS
Format/Info                              : Digital Theater Systems
Codec ID                                 : A_DTS
Duration                                 : 1h 30mn
Bit rate mode                            : Constant
Bit rate                                 : 1 510 Kbps
Channel(s)                               : 6 channels
Channel positions                        : Front: L C R, Side: L R, LFE
Sampling rate                            : 48.0 KHz
Bit depth                                : 16 bits
Compression mode                         : Lossy
Stream size                              : 981 MiB (20%)
Title                                    : DTS 5.1 @ 1536 kbps
Language                                 : English
Default                                  : No
Forced                                   : No

Text #1
ID                                       : 4
Format                                   : UTF-8
Codec ID                                 : S_TEXT/UTF8
Codec ID/Info                            : UTF-8 Plain Text
Title                                    : R5
Language                                 : Russian
Default                                  : No
Forced                                   : No

Text #2
ID                                       : 5
Format                                   : UTF-8
Codec ID                                 : S_TEXT/UTF8
Codec ID/Info                            : UTF-8 Plain Text
Language                                 : English
Default                                  : No
Forced                                   : No

Text #3
ID                                       : 6
Format                                   : UTF-8
Codec ID                                 : S_TEXT/UTF8
Codec ID/Info                            : UTF-8 Plain Text
Title                                    : SDH
Language                                 : English
Default                                  : No
Forced                                   : No
Скриншоты:
[NNM-Club.ru]Horoshij.doktor.2011.P.BDRip.720p.mkv.torrent
 Торрент: Платиновая раздача  Зарегистрирован
 
Скачать


 Зарегистрирован:   23 Апр 2013 18:28:55
 Размер:   4.82 GB  (
 Рейтинг:   4.7 (Голосов: 22)
 Поблагодарили:   117
 Проверка:   Оформление проверено модератором 24 Апр 2013 15:13:06
Как cкачать  ·  Как раздать  ·  Правильно оформить  ·  Поднять ратио!  
Показать сообщения:   
Начать новую тему   Ответить на тему    Торрент-трекер NNM-Club -> Зарубежное кино -> Зарубежные Фильмы (HD, FHD) Часовой пояс: GMT + 3
Страница 1 из 1