Классический форум-трекер
canvas not supported
Нас вместе: 4 232 971

Сомнамбула (2012) DVDRip


 
 
RSS
Начать новую тему   Ответить на тему    Торрент-трекер NNM-Club -> Отечественное кино -> Отечественные Фильмы (SD)
Автор Сообщение
Marioxo ®
Стаж: 11 лет 5 мес.
Сообщений: 61
Ratio: 8.309
Раздал: 3.58 TB
Поблагодарили: 10500
100%
russia.gif
Сомнамбула (2012) DVDRip
Русское название: Сомнамбула
Год выпуска: 2012
Производство: Россия
Жанр: Триллер, Драма
Субтитры: Отсутствуют

Дата российской премьеры: 21 февраля 2013
Дата выхода DVD релиза: 13 мая 2013

Режиссер: Алексей Смирнов
Актеры: Сергей Апрельский, Андрей Дементьев, Мария Ясная, Александр Златопольский, Марина Гапченко, Георгий Колтушкин, Сергей Ковалёв, Николай Михайлов, Вера Сибирёва, Мария Ясная

Описание фильма:
Фильм основан на истории произошедшей в Интернате для детей сирот в Воронежской области, куда в 1993 году поступил 7-ми летний Андрей Яковлев. Внимание всего Интерната к мальчику приковали странные события, которые происходили с ним почти каждую ночь.
Утром на теле мальчика появлялись ссадины, и царапины. Охрана патрулировала по корпусу каждый час, ночные дежурные не сводили с мальчика глаз — но так ничего и не выяснили. 3 августа 1993 года в спальнях интерната установили камеры видеонаблюдения. То, что запечатлели камеры шокировало сотрудников Интерната и привлекло внимание спецслужб. С виду обычный ребенок, обладающий множеством талантов и перспектив на будущее, поневоле создал огромный ажиотаж вокруг себя, а некоторые факты из его биографии были засекречены. В основу фильма легли секретные файлы, кадры камер видеонаблюдения датированные 1993 годом, а также свидетельства очевидцев.



Продолжительность: 01:17:59
Качество видео: DVDRip

Видеокодек: Xvid
Битрейт видео: ~1113 kb/s
Размер кадра: 640x352
Аудиокодек: MP3 (2 канала)
Битрейт аудио: 128 kbps
Сэмпл: Скачать
Общее
Полное имя : D:\Торренты на раздачу\Сомнамбула\Somnambula.avi
Формат : AVI
Формат/Информация : Audio Video Interleave
Размер файла : 697 Мбайт
Продолжительность : 1 ч. 17 м.
Общий поток : 1250 Кбит/сек
Программа кодирования : VirtualDubMod 1.5.10.3 | www.virtualdub-fr.org || (build 2550/release)
Библиотека кодирования : VirtualDubMod build 2550/release

Видео
Идентификатор : 0
Формат : MPEG-4 Visual
Профиль формата : Advanced Simple@L5
Параметр BVOP формата : 1
Параметр QPel формата : Нет
Параметр GMC формата : Без точки перехода
Параметр матрицы формата : Выборочная
Идентификатор кодека : XVID
Идентификатор кодека/Подсказка : XviD
Продолжительность : 1 ч. 17 м.
Битрейт : 1113 Кбит/сек
Ширина : 640 пикселей
Высота : 352 пикселя
Соотношение сторон : 16:9
Частота кадров : 25,000 кадров/сек
Цветовое пространство : YUV
Субдискретизация насыщенности : 4:2:0
Битовая глубина : 8 бит
Тип развёртки : Прогрессивная
Метод сжатия : С потерями
Бит/(Пиксели*Кадры) : 0.198
Размер потока : 621 Мбайт (89%)
Библиотека кодирования : XviD 1.2.1 (UTC 2008-12-04)

Аудио
Идентификатор : 1
Формат : MPEG Audio
Версия формата : Version 1
Профиль формата : Layer 3
Идентификатор кодека : 55
Идентификатор кодека/Подсказка : MP3
Продолжительность : 1 ч. 17 м.
Вид битрейта : Постоянный
Битрейт : 128 Кбит/сек
Каналы : 2 канала
Частота : 48,0 КГц
Метод сжатия : С потерями
Размер потока : 71,4 Мбайт (10%)
Выравнивание : Соединение по промежуткам
Продолжительность промежутка : 40 мс. (1,00 видеокадр)
Время предзагрузки промежутка : 504 мс.
Библиотека кодирования : LAME3.98r
Настройки программы : -m s -V 4 -q 2 -lowpass 17 -b 128
Скриншоты:


Время раздачи: ~ С 14:00 до 03:00
[NNM-Club.ru]_Somnambula.torrent
 Торрент:   Зарегистрирован
 
Зарегистрируйтесь и скачайте торрент!
14.1 KB

Примагнититься
 Зарегистрирован:   15 Май 2013 22:56:03
 Размер:   697 MB  (
 Рейтинг:   4.4 (Голосов: 63)
 Поблагодарили:   353
 Проверка:   Оформление проверено модератором 16 Май 2013 18:14:39
Как cкачать  ·  Как раздать  ·  Правильно оформить  ·  Поднять ратио!  
petrofandok
Стаж: 16 лет 5 мес.
Сообщений: 15
Ratio: 0.33
Поблагодарили: 90
2.94%
Русские фильмы принципиально не смотрю!
Думал, что хоть в этом жанре снимут что-нибудь хорошее. Ведь дорогостоящих спецэффектов не нужно.
Но т.к. люблю этот жанр - все таки скачал.
Вообщем еле досмотрел до конца.
Буду и дальше НЕ СМОТРЕТЬ РУССКОЕ кино....
max69ter
Стаж: 13 лет 5 мес.
Сообщений: 15
Ratio: 11.156
100%
russia.gif
petrofandok
Фильмы на русском языке для русскоговорящих, и шедевров выходит побольше чем в мировом кино, а то что сняли фильм не про картошку, так извините..., все меньше талантливых режиссеров, глобальная политика направлена на всеобщую кретинизацию населения планеты и ты живое подтверждение их успеха.
Интересно есть ли Белорусские фильмы сделанные не русскими или новинки мирового кино заслуживающие уважения, а наших фильмов которые люди великой страны пересматривают с удовольствием очень много, из пост советских посмотри хоть "Похороните меня за плинтусом", снятый про свое детство сыном Санаевой (лиса Алиса из "Буратино") жившей на момент повествования с Роланом Быковым... (и до самой смерти талантливого актера и режисера)
Список советских картин приводить не буду, тебе не поможет...
Preacher_Chips
Стаж: 14 лет 3 мес.
Сообщений: 100
Ratio: 40.175
Поблагодарили: 19
100%
max69ter

Русский шовинизм в действии.
dlook
Стаж: 14 лет 4 мес.
Сообщений: 1919
Ratio: 52.815
Поблагодарили: 4074
100%
Че вы спорите. Вообще щас очень мало хорошего кино в любой стране. На западе снимают   для детей или склеротиков (одно и то же под копирку), да и идиотизма в них побольше чем в русских. А русские фильмы стали дерьмoвыми, потому, что вся "цивилизованная" Россия щас дрoчит на запад, и кинопром не исключение, вот только денег нет для вылизывания гoвноподелок (как у американцев). В общем сдохло кино во всем мире, и неизвестно, воскреснет ли, потому как это мало кому нужно. Правда, изредка попадаются ещё живые фильмы, а не зомби-флэшбэки для зомби-зрителей.

_________________
Рейтинги контента на nnm накручены. Не смотри рейтинги, смотри комментарии.
vrublik
Стаж: 12 лет 9 мес.
Сообщений: 3
Ratio: 269.378
76.92%
petrofandok
Ты попробуй зайди в пивбар и громко скажи: пиво не пью и никогда пить его не буду. Самое меньше что ты услышишь - так это слово ПОЦ. Ты зачем сюда пришел, если не смотришь фильмы на русском языке? :стрельба:
wowkin07
Стаж: 10 лет 11 мес.
Сообщений: 26
Ratio: 7.332
Поблагодарили: 14
16.07%
Откуда: С работы
russia.gif
petrofandok
Не все российские фильмы хороши, но есть достойные в отличии от пропагандистских янковских, которые навязывают нам свой менталитет (да если бы он еще и действительно был хорошим )

_________________
Чем больше познаю людей, тем больше нравятся собаки... Зигмунд Фрейд
djabar
Стаж: 15 лет 1 мес.
Сообщений: 20
Ratio: 1.302
8.7%
latvia.gif
petrofandok
Кстати зря что не смотрите российское кино, посмотрите "рассказы, географа, неадекватные люди" для начала, много шлака но есть интересное кино, хотя признаюсь что я вот не смотрю американское кино, так как у них все шаблонно и наигранно да сюжет как детский сад.
Awiaz
Стаж: 14 лет 1 мес.
Сообщений: 6
Ratio: 25.157
33.33%
Preacher_Chips писал(а): Перейти к сообщению
Русский шовинизм в действии.

В теме вижу не прикрытую русофобию. На шовинизм и намека нет у всех ответивших.
Показать сообщения:   
Начать новую тему   Ответить на тему    Торрент-трекер NNM-Club -> Отечественное кино -> Отечественные Фильмы (SD) Часовой пояс: GMT + 3
Страница 1 из 1