Классический форум-трекер
canvas not supported
Нас вместе: 4 232 304

Американцы / The Americans (2013) WEB-DLRip (Сезон 1, серии 1-13 из 13) [Кубик в кубе]


 
 
RSS
Начать новую тему   Ответить на тему    Торрент-трекер NNM-Club -> Зарубежные сериалы
Автор Сообщение
NENY ®
Стаж: 12 лет
Сообщений: 75
Ratio: 54.831
Раздал: 4.818 TB
Поблагодарили: 11427
100%
hungary.gif
Американцы / The Americans (2013) WEB-DLRip (Сезон 1, серии 1-13 из 13) [Кубик в кубе]
Год выпуска: 2013
Жанр: Драма, Криминал

Перевод: Двуголосый закадровый, профессиональный - Кубик в кубе
Дата мировой премьеры: 30 января 2013



Режиссер: Гэвин О’Коннор
Актеры: Мэттью Риз, Кери Рассел, Дэмиен Боско, Чейз Коулмэн, Майкл Дивайн, Ноа Эммерик, Лалэйн Фаби, Кевин МакКормик, Дэннис Риис, Роман Ройтберг

Описание фильма:
История о сложном браке двух агентов КГБ, которые под видом американцев заселяются в пригород Вашингтона сразу после того, как президентом избирают Рейгана. Подставной брак Филлипа и Элизабет с каждым днем становится все более настоящим и эмоциональным, несмотря на эскалацию холодной войны и опасные отношения, которые они должны поддерживать с сетью шпионов и информаторов. Напряжение нарастает, когда появляется новый сосед Стэн, агент ФБР, который работает в контрразведке.

Продолжительность: 01:09:30 + 12 x ~ 00:45:00
Качество видео: WEB-DLRip

Видеокодек: Xvid
Битрейт видео: ~999 kb/s
Размер кадра: 624x352
Аудиокодек: MP3
Аудио Rus: MP3, 224 kb/s |Кубик в Кубе|
Аудио Eng: MP3, 224 kb/s |Original|

Сэмпл: Скачать
Все релизы The Americans
Полное имя : C:\Users\Артём\Desktop\Android\The Americans Season 1 Kybik v Kybe\The.Americans.s01e04.rus.eng.Kybik.v.Kybe.avi
Формат : AVI
Формат/Информация : Audio Video Interleave
Размер файла : 462 Мбайт
Продолжительность : 44 м.
Общий поток : 1462 Кбит/сек
Программа кодирования : VirtualDubMod 1.5.10.2 (build 2540/release)
Библиотека кодирования : VirtualDubMod build 2540/release

Видео
Идентификатор : 0
Формат : MPEG-4 Visual
Профиль формата : Advanced Simple@L5
Параметр BVOP формата : 1
Параметр QPel формата : Нет
Параметр GMC формата : Без точки перехода
Параметр матрицы формата : Default (H.263)
Идентификатор кодека : XVID
Идентификатор кодека/Подсказка : XviD
Продолжительность : 44 м.
Битрейт : 1000 Кбит/сек
Ширина : 624 пикселя
Высота : 352 пикселя
Соотношение сторон : 16:9
Частота кадров : 23,976 кадра/сек
Цветовое пространство : YUV
Субдискретизация насыщенности : 4:2:0
Битовая глубина : 8 бит
Тип развёртки : Прогрессивная
Метод сжатия : С потерями
Бит/(Пиксели*Кадры) : 0.190
Размер потока : 316 Мбайт (68%)
Библиотека кодирования : XviD 65

Аудио #1
Идентификатор : 1
Формат : MPEG Audio
Версия формата : Version 1
Профиль формата : Layer 3
Идентификатор кодека : 55
Идентификатор кодека/Подсказка : MP3
Продолжительность : 44 м.
Вид битрейта : Постоянный
Битрейт : 224 Кбит/сек
Каналы : 2 канала
Частота : 48,0 КГц
Метод сжатия : С потерями
Размер потока : 70,7 Мбайт (15%)
Выравнивание : Соединение по промежуткам
Продолжительность промежутка : 42 мс. (1,00 видеокадр)
Время предзагрузки промежутка : 504 мс.

Аудио #2
Идентификатор : 2
Формат : MPEG Audio
Версия формата : Version 1
Профиль формата : Layer 3
Режим : Joint stereo
Расширение режима : MS Stereo
Идентификатор кодека : 55
Идентификатор кодека/Подсказка : MP3
Продолжительность : 44 м.
Вид битрейта : Постоянный
Битрейт : 224 Кбит/сек
Каналы : 2 канала
Частота : 48,0 КГц
Метод сжатия : С потерями
Размер потока : 70,7 Мбайт (15%)
Выравнивание : Соединение по промежуткам
Продолжительность промежутка : 42 мс. (1,00 видеокадр)
Время предзагрузки промежутка : 504 мс.
Библиотека кодирования : LAME3.99r
Настройки программы : -m j -V 4 -q 2 -lowpass 19.4 -b 224
Скриншоты:


Время раздачи: С 8:30 до 23:00
[NNM-Club.ru]_The Americans Season 1 Kybik v Kybe.torrent
 Торрент: Платиновая раздача  Зарегистрирован
 
Скачать


 Зарегистрирован:   16 Май 2013 17:07:30
 Размер:   6.45 GB  (
 Рейтинг:   4.7 (Голосов: 67)
 Поблагодарили:   364
 Проверка:   Оформление проверено модератором 17 Май 2013 08:10:30
Как cкачать  ·  Как раздать  ·  Правильно оформить  ·  Поднять ратио!  
Gerzki
Стаж: 11 лет 5 мес.
Сообщений: 23
Ratio: 66.017
100%
ussr.gif
скрины 3-4 из другого сериала
NENY ®
Стаж: 12 лет
Сообщений: 75
Ratio: 54.831
Раздал: 4.818 TB
Поблагодарили: 11427
100%
hungary.gif
Gerzki писал(а): Перейти к сообщению
скрины 3-4 из другого сериала

Ан нет уважаемый =) в начале каждой серии идёт реклама :подмигивание: поэтому скрины отображают качество в раздаче
JewelNik
Стаж: 12 лет 9 мес.
Сообщений: 8
Ratio: 1.736
100%
Спасибо!
ZhenyaF
Стаж: 12 лет 8 мес.
Сообщений: 22
Ratio: 11.218
100%
В 11-й серии на 17-й минуте у полковника КГБ погоны задом на перед пришиты !!!
a2s_ru
Стаж: 13 лет 4 мес.
Сообщений: 103
Ratio: 24.777
23.24%
Откуда: Сталинград
russia.gif
Народ как сериал, стоящий или нет? на что похож?

_________________
В.Б.Д. - видимость бурной деятельности - основной вид деятельности бурноработающих работников. Вид деятельности, часто встречающаяся в офисах крупных и средних компаний,
реже, за пределами офисов. Очень часто встречается в среде дорожных работников, и автомастерских.
Draggy90
Стаж: 10 лет 8 мес.
Сообщений: 50
Ratio: 16.06
100%
Откуда: Крым,Феодосия
russia.gif
Все кругом нахваливают.Так что думаю поверить мнению общества.
Вообще для тех,кто хочет узнать норм сериал или не очень оставлю спойлерок.
Bad Zeppelin
Стаж: 16 лет 2 мес.
Сообщений: 52
Ratio: 3.241
100%
russia.gif
ZhenyaF писал(а): Перейти к сообщению
В 11-й серии на 17-й минуте у полковника КГБ погоны задом на перед пришиты !!!


Поэтому он полковник, а не генерал.
Показать сообщения:   
Начать новую тему   Ответить на тему    Торрент-трекер NNM-Club -> Зарубежные сериалы Часовой пояс: GMT + 3
Страница 1 из 1