Классический форум-трекер
canvas not supported
Нас вместе: 4 232 963

Соседи / The Neighbors (2012-2013) WEB-DLRip [H.264/720p-LQ], [H.264/1080p-LQ] (Сезон 1, серии 1-22 из 22) [Кириллица]


 
 
RSS
Начать новую тему   Ответить на тему    Торрент-трекер NNM-Club -> Архив торрентов -> Архив Сериалов и Архив Старого многосерийного кино до 90-х
Автор Сообщение
Marioxo ®
Стаж: 11 лет 5 мес.
Сообщений: 61
Ratio: 8.309
Раздал: 3.58 TB
Поблагодарили: 10500
100%
russia.gif
Соседи / The Neighbors (2012-2013) WEB-DLRip [H.264/720p-LQ], [H.264/1080p-LQ] (Сезон 1, серии 1-22 из 22) [Кириллица]
Год выпуска: 2012-2013
Жанр: Комедия, Семейный, Фантастика

Перевод: Многоголосый закадровый, профессиональный
Озвучка / Автор перевода: Студия «Кириллица»
Релиз-группа: NovaFilm (запись с канала «Fox»)
Вид субтитров: Отсутствуют



Дата мировой премьеры: 26 сентября 2012
Дата российской премьеры: 14 ноября 2012

Режиссер: Крис Кох / Chris Koch, Джон Фортенберри / John Fortenberry, Лев Л. Спиро / Lev L. Spiro
Актеры: Изабелла Крамп, Джейми Герц, Макс Чарльз, Brian Guest, Трэйси Вейсерт, Ленни Венито, Саймон Темплмен, Toks Olagundoye, Клара Мамет, Тим Джо

Описание фильма:
В один прекрасный день Марти Уивер, в порыве изменить жизнь своей семьи к лучшему, решает, что они переезжают в новый дом в тихом пригороде Нью-Джерси. В первый же день Уиверы знакомится с соседями, которые ведут себя… несколько странно.
Оказывается, что местные жители — инопланетяне, которые вот уже 10 лет обитают в этом городке в ожидании инструкций для возвращения на свою родную планету.

Продолжительность: 22 x ~00:30:00
Качество видео: WEB-DLRip

Видеокодек: MPEG-4 AVC/H.264
Битрейт видео: ~4000 kbps avg
Размер кадра: 1280x720 (1-6, 17) / 1920x1080 (7-16, 18-22)
Аудиокодек: AC3 2.0/5.1
Битрейт аудио:
Аудио #1 (Rus): 192 kbps avg
Аудио #2 (Eng): 384 kbps avg
01: Pilot
02: Journey to the Center of the Mall
03: Things Just Got Real
04: Bathroom Etiquette
05: Halloween-ween
06: Larry Bird and the Iron Throne
07: 50 Shades of Green
08: Thanksgiving Is for the Bird-Kersees
09: Merry Crap-mas
10: Juan of the Dead
11: The Gingerbread Man
12: Cold War
13: Dream Weavers
14: The Back Nine
15: Space Invaders
16: Mother Clubbers
17: Larry Bird Presents an Oscar-Winning Film by Larry Bird
18: Camping
19: I Believe I Can Drive
20: Sing Like a Larry Bird (Aka the Musical)
21: Mo Purses Mo Money Mo Problems
22: It Has Begun...
Общее
Уникальный идентификатор : 238196576434930432647678460885730239614 (0xB332FDEE8317D51080DA20A4A5AEA47E)
Полное имя : D:\Торренты на раздачу\Соседи\The.Neighbors.S01.720p.WEB-DL\The.Neighbors.S01E01.720p.WEB-DL.Rus.Eng.NovaFilmTV.mkv
Формат : Matroska
Версия формата : Version 2
Размер файла : 698 Мбайт
Продолжительность : 21 м.
Общий поток : 4514 Кбит/сек
Дата кодирования : UTC 2012-11-14 20:30:14
Программа кодирования : mkvmerge v5.8.0 ('No Sleep / Pillow') built on Sep 2 2012 15:37:04
Библиотека кодирования : libebml v1.2.3 + libmatroska v1.3.0

Видео
Идентификатор : 1
Формат : AVC
Формат/Информация : Advanced Video Codec
Профиль формата : High@L3.1
Параметр CABAC формата : Нет
Параметр ReFrames формата : 2 кадра
Идентификатор кодека : V_MPEG4/ISO/AVC
Продолжительность : 21 м.
Битрейт : 3848 Кбит/сек
Ширина : 1280 пикселей
Высота : 720 пикселей
Соотношение сторон : 16:9
Режим частоты кадров : Постоянный
Частота кадров : 23,976 кадра/сек
Цветовое пространство : YUV
Субдискретизация насыщенности : 4:2:0
Битовая глубина : 8 бит
Тип развёртки : Прогрессивная
Бит/(Пиксели*Кадры) : 0.174
Размер потока : 595 Мбайт (85%)
Язык : English
Default : Нет
Forced : Нет
Основные цвета : BT.709
Характеристики трансфера : BT.709
Коэффициенты матрицы : BT.709

Аудио #1
Идентификатор : 2
Формат : AC-3
Формат/Информация : Audio Coding 3
Расширение режима : CM (complete main)
Параметр Endianness формата : Big
Идентификатор кодека : A_AC3
Продолжительность : 21 м.
Вид битрейта : Постоянный
Битрейт : 192 Кбит/сек
Каналы : 2 канала
Расположение каналов : Front: L R
Частота : 48,0 КГц
Битовая глубина : 16 бит
Метод сжатия : С потерями
Размер потока : 29,7 Мбайт (4%)
Язык : Russian
Default : Да
Forced : Нет

Аудио #2
Идентификатор : 3
Формат : AC-3
Формат/Информация : Audio Coding 3
Расширение режима : CM (complete main)
Параметр Endianness формата : Big
Идентификатор кодека : A_AC3
Продолжительность : 21 м.
Вид битрейта : Постоянный
Битрейт : 384 Кбит/сек
Каналы : 6 каналов
Расположение каналов : Front: L C R, Side: L R, LFE
Частота : 48,0 КГц
Битовая глубина : 16 бит
Метод сжатия : С потерями
Размер потока : 59,4 Мбайт (9%)
Язык : English
Default : Нет
Forced : Нет
Общее
Уникальный идентификатор : 201765583162491669288702987134212405387 (0x97CAA3493754B4AD82A51E7E6406788B)
Полное имя : D:\Торренты на раздачу\Соседи\The.Neighbors.S01.720p.WEB-DL\The.Neighbors.S01E13.1080p.WEB-DL.Rus.Eng.NovaFilmTV.mkv
Формат : Matroska
Версия формата : Version 4 / Version 2
Размер файла : 860 Мбайт
Продолжительность : 21 м.
Общий поток : 5562 Кбит/сек
Дата кодирования : UTC 2013-03-06 21:07:30
Программа кодирования : mkvmerge v6.1.0 ('Old Devil') built on Mar 2 2013 14:32:37
Библиотека кодирования : libebml v1.3.0 + libmatroska v1.4.0

Видео
Идентификатор : 1
Формат : AVC
Формат/Информация : Advanced Video Codec
Профиль формата : High@L4.0
Параметр CABAC формата : Да
Параметр ReFrames формата : 4 кадра
Идентификатор кодека : V_MPEG4/ISO/AVC
Продолжительность : 21 м.
Битрейт : 4875 Кбит/сек
Ширина : 1920 пикселей
Высота : 1080 пикселей
Соотношение сторон : 16:9
Режим частоты кадров : Постоянный
Частота кадров : 23,976 кадра/сек
Цветовое пространство : YUV
Субдискретизация насыщенности : 4:2:0
Битовая глубина : 8 бит
Тип развёртки : Прогрессивная
Бит/(Пиксели*Кадры) : 0.098
Размер потока : 754 Мбайт (88%)
Язык : English
Default : Нет
Forced : Нет
Основные цвета : BT.709
Характеристики трансфера : BT.709
Коэффициенты матрицы : BT.709

Аудио #1
Идентификатор : 2
Формат : AC-3
Формат/Информация : Audio Coding 3
Расширение режима : CM (complete main)
Параметр Endianness формата : Big
Идентификатор кодека : A_AC3
Продолжительность : 21 м.
Вид битрейта : Постоянный
Битрейт : 192 Кбит/сек
Каналы : 2 канала
Расположение каналов : Front: L R
Частота : 48,0 КГц
Битовая глубина : 16 бит
Метод сжатия : С потерями
Размер потока : 29,7 Мбайт (3%)
Язык : Russian
Default : Да
Forced : Нет

Аудио #2
Идентификатор : 3
Формат : AC-3
Формат/Информация : Audio Coding 3
Расширение режима : CM (complete main)
Параметр Endianness формата : Big
Идентификатор кодека : A_AC3
Продолжительность : 21 м.
Вид битрейта : Постоянный
Битрейт : 384 Кбит/сек
Каналы : 6 каналов
Расположение каналов : Front: L C R, Side: L R, LFE
Частота : 48,0 КГц
Битовая глубина : 16 бит
Метод сжатия : С потерями
Размер потока : 59,4 Мбайт (7%)
Язык : English
Default : Нет
Forced : Нет
ВСЕ РЕЛИЗЫ

Скриншоты:


Время раздачи: ~ С 14:00 до 03:00 (10-15 скачавших)
[NNM-Club.ru]_The.Neighbors.S01.720p.torrent
 Торрент: Платиновая раздача  Зарегистрирован
 
Скачать


 Зарегистрирован:   18 Май 2013 22:57:44
 Размер:   17.7 GB  (
 Рейтинг:   4.7 (Голосов: 18)
 Поблагодарили:   76
 Проверка:   Оформление проверено модератором 19 Май 2013 22:43:33
Как cкачать  ·  Как раздать  ·  Правильно оформить  ·  Поднять ратио!  
fayst666
Стаж: 13 лет
Сообщений: 28
Ratio: 2.997
Поблагодарили: 113
3.88%
Откуда: Нижнекамск
russia.gif
Скажите пожалуйста, а есть ли какая нибудь информация по 2 сезону?
Топик был перенесен из форума Зарубежные сериалы в форум Архив Сериалов

Причина переноса: раздающего не было месяц или более.
DriverV
Показать сообщения:   
Начать новую тему   Ответить на тему    Торрент-трекер NNM-Club -> Архив торрентов -> Архив Сериалов и Архив Старого многосерийного кино до 90-х Часовой пояс: GMT + 3
Страница 1 из 1