Классический форум-трекер
canvas not supported
Нас вместе: 4 233 687

Семь психопатов / Seven Psychopaths (2012) HDRip


 
 
RSS
Начать новую тему   Ответить на тему    Торрент-трекер NNM-Club -> Зарубежное кино -> Зарубежные Фильмы (SD)
Автор Сообщение
Marioxo ®
Стаж: 11 лет 6 мес.
Сообщений: 61
Ratio: 8.309
Раздал: 3.58 TB
Поблагодарили: 10500
100%
russia.gif
Семь психопатов / Seven Psychopaths (2012) HDRip
Русское название: Семь психопатов
Оригинальное название: Seven Psychopaths
Год выпуска: 2012
Жанр: Комедия, Криминал

Описание фильма:
Непутевый писатель потерял вдохновение и никак не может справиться с новым сценарием. Волей случая он оказывается втянутым в похищение собаки, затеянное его эксцентричными дружками. Выясняется, что украденное животное — любимый пёс главного местного гангстера, которому ничего не стоит в два счета вычислить и уничтожить оболтусов.

Режиссер: Мартин МакДона
Актеры: Колин Фаррелл, Сэм Рокуэлл, Кристофер Уокен, Вуди Харрельсон, Том Уэйтс, Эбби Корниш, Ольга Куриленко, Желько Иванек, Майкл Питт, Майкл Стулбарг

Продолжительность: 01:50:23
Перевод: Дублированный
Релиз группа: All Films и RG Torrents
Язык субтитров: Отсутствуют



Дата мировой премьеры: 7 сентября 2012
Дата российской премьеры: 18 октября 2012
Дата выхода DVD релиза: 6 февраля 2013

Видеокодек: Xvid
Битрейт видео: ~805 kbps avg
Размер кадра: 688x288
Качество видео: HDRip
Аудиокодек: MP3 2 ch
Битрейт аудио: ~128.00 kbps avg
Общее
Полное имя : D:\Торренты на раздачу\Семь психопатов\Seven_Psychopaths.avi
Формат : AVI
Формат/Информация : Audio Video Interleave
Размер файла : 744 Мбайт
Продолжительность : 1 ч. 50 м.
Общий поток : 942 Кбит/сек
Программа кодирования : VirtualDubMod 1.5.10.3 | www.virtualdub-fr.org || (build 2550/release)
Библиотека кодирования : VirtualDubMod build 2550/release

Видео
Идентификатор : 0
Формат : MPEG-4 Visual
Профиль формата : Advanced Simple@L5
Параметр BVOP формата : 1
Параметр QPel формата : Нет
Параметр GMC формата : Без точки перехода
Параметр матрицы формата : Выборочная
Идентификатор кодека : XVID
Идентификатор кодека/Подсказка : XviD
Продолжительность : 1 ч. 50 м.
Битрейт : 805 Кбит/сек
Ширина : 688 пикселей
Высота : 288 пикселей
Соотношение сторон : 2,40:1
Частота кадров : 23,976 кадра/сек
Цветовое пространство : YUV
Субдискретизация насыщенности : 4:2:0
Битовая глубина : 8 бит
Тип развёртки : Прогрессивная
Метод сжатия : С потерями
Бит/(Пиксели*Кадры) : 0.169
Размер потока : 636 Мбайт (85%)
Библиотека кодирования : XviD 65

Аудио
Идентификатор : 1
Формат : MPEG Audio
Версия формата : Version 1
Профиль формата : Layer 3
Идентификатор кодека : 55
Идентификатор кодека/Подсказка : MP3
Продолжительность : 1 ч. 50 м.
Вид битрейта : Постоянный
Битрейт : 128 Кбит/сек
Каналы : 2 канала
Частота : 48,0 КГц
Метод сжатия : С потерями
Размер потока : 101 Мбайт (14%)
Выравнивание : Соединение по промежуткам
Продолжительность промежутка : 42 мс. (1,00 видеокадр)
Время предзагрузки промежутка : 504 мс.
Библиотека кодирования : LAME3.99r
Настройки программы : -m s -V 4 -q 2 -lowpass 17 -b 128
Скриншоты:


Время раздачи: ~ С 14:00 до 03:00 (10-15 скачавших)
[NNM-Club.ru]_Seven_Psychopaths.torrent
 Торрент: Платиновая раздача  Зарегистрирован
 
Скачать


Примагнититься
 Зарегистрирован:   20 Май 2013 19:00:28
 Размер:   744 MB  (
 Рейтинг:   4.6 (Голосов: 51)
 Поблагодарили:   192
 Проверка:   Оформление проверено модератором 23 Май 2013 08:32:23
Как cкачать  ·  Как раздать  ·  Правильно оформить  ·  Поднять ратио!  
Racc100
Стаж: 11 лет 2 мес.
Сообщений: 13
Ratio: 3.639
100%
весьма смотрибельно .спасибо
praunik
Стаж: 11 лет 9 мес.
Сообщений: 204
Ratio: 0.884
100%
belarus.gif
спасибо
Показать сообщения:   
Начать новую тему   Ответить на тему    Торрент-трекер NNM-Club -> Зарубежное кино -> Зарубежные Фильмы (SD) Часовой пояс: GMT + 3
Страница 1 из 1