Классический форум-трекер
canvas not supported
Нас вместе: 4 232 304

Братва из джунглей / Delhi Safari (2012) BDRip [H.264/720p-LQ]


 
 
RSS
Начать новую тему   Ответить на тему    Торрент-трекер NNM-Club -> Мультфильмы -> Зарубежные Мультфильмы 21-го века (HD, FHD, UHD)
Автор Сообщение
eXPpectant ®
Стаж: 14 лет 5 мес.
Сообщений: 2457
Ratio: 1628.264
Раздал: 18.08 TB
Поблагодарили: 308063
100%
Откуда: Нижний Тагил + Дмитров
russia.gif
Братва из джунглей / Delhi Safari (2012) BDRip
«Давно не были в джунглях? Тогда мы идем к вам!»
Русское название: Братва из джунглей
Оригинальное название: Delhi Safari
Год выпуска: 2012
Производство: Индия / Krayon Pictures
Жанр: Мультфильм, Семейный, Мюзикл
Описание:
Животные — обитатели национального парка возле Бомбея — встречают яркое солнечное утро под пение птиц. И вдруг идиллическую картинку дикой природы нарушает страшный грохот. Это, круша все на своем пути, джунгли атакует человек на бульдозере. На месте прекрасной рощи люди водружают табличку: здесь идет строительство жилого комплекса.
Смертельно напуганные звери ночью собираются на совет. Юный леопард Юви горячо убеждает взрослых не бросать свои жилища. «Горячая голова» воин-обезьяна, Бахранжи, готов объявить смертельную войну незваным гостям, но Гуру в области конфликтологии, медведь Багга предлагает договориться с людьми по-хорошему. Одомашненный говорящий попугай Алекс решает присоединиться к друзьям, чтобы выступить переводчиком.
Разношерстная компания пускается в долгое путешествие в столицу. Через горы и реки, на поездах и грузовиках, чтобы найти Главного Начальника и передать ему свое прошение. По дороге выясняется, что не только их дома, но и жилища тысяч других животных находятся в опасности. В финале захватывающего приключения различные животные становятся друзьями, поскольку их объединяет борьба за общий ДОМ.
Режиссер: Никхил Адвани
Актеры: Говинда, Акшай Кханна, Урмила Матондкар, Боман Ирани, Свини Кхера, Прем Чопра, Саурабх Шукла, Санджай Мишра, Дипак Добриял, Гириш Дхамиджа...
Роли дублировали: Арарат Кещян, Андрей Рожков

Дата мировой премьеры:: 19 октября 2012
Дата российской премьеры: 11 апреля 2013, «Top Film Distribution»
Дата выхода DVD релиза: 21 мая 2013, «Lizard Cinema Trade»
Продолжительность: 01:36:38
Перевод: Дублированный (лицензия)
Видеокодек: MPEG-4 AVC/H.264
Битрейт видео: ~3344 Кбит/сек
Размер кадра: 1280x544
Качество видео: BDRip
Аудио#1: Русский - AC3, 448 kb/s (6 ch)
Аудио#2: Английский - DTS, 1510 kb/s (6 ch)
Общее
Уникальный идентификатор : 235658377625079043581691671226161136852 (0xB14A27118A2D982E8BEBD8AB6A8584D4)
Полное имя : D:\Торрент раздача\Bratva.iz.dzhunglej.2012.D.BDRip.720p.mkv
Формат : Matroska
Версия формата : Version 2
Размер файла : 3,58 Гбайт
Продолжительность : 1 ч. 36 м.
Общий поток : 5304 Кбит/сек
Дата кодирования : UTC 2013-05-26 11:18:38
Программа кодирования : mkvmerge v2.9.8 ('C'est le bon') built on Nov 20 2009 13:01:15
Библиотека кодирования : libebml v0.7.9 + libmatroska v0.8.1

Видео
Идентификатор : 1
Формат : AVC
Формат/Информация : Advanced Video Codec
Профиль формата : High@L4.1
Параметр CABAC формата : Да
Параметр ReFrames формата : 5 кадров
Идентификатор кодека : V_MPEG4/ISO/AVC
Продолжительность : 1 ч. 36 м.
Битрейт : 3344 Кбит/сек
Ширина : 1280 пикселей
Высота : 544 пикселя
Соотношение сторон : 2,35:1
Режим частоты кадров : Постоянный
Частота кадров : 23,976 кадра/сек
Цветовое пространство : YUV
Субдискретизация насыщенности : 4:2:0
Битовая глубина : 8 бит
Тип развёртки : Прогрессивная
Бит/(Пиксели*Кадры) : 0.200
Размер потока : 2,19 Гбайт (61%)
Библиотека кодирования : x264 core 133 r2334 a3ac64b
Настройки программы : cabac=1 / ref=5 / deblock=1:0:0 / analyse=0x3:0x133 / me=umh / subme=7 / psy=1 / psy_rd=1.00:0.00 / mixed_ref=1 / me_range=16 / chroma_me=1 / trellis=1 / 8x8dct=1 / cqm=0 / deadzone=21,11 / fast_pskip=0 / chroma_qp_offset=-2 / threads=16 / lookahead_threads=2 / sliced_threads=0 / nr=0 / decimate=1 / interlaced=0 / bluray_compat=0 / constrained_intra=0 / bframes=3 / b_pyramid=2 / b_adapt=1 / b_bias=0 / direct=1 / weightb=1 / open_gop=0 / weightp=2 / keyint=230 / keyint_min=22 / scenecut=40 / intra_refresh=0 / rc_lookahead=40 / rc=2pass / mbtree=1 / bitrate=3344 / ratetol=1.0 / qcomp=0.60 / qpmin=10 / qpmax=51 / qpstep=4 / cplxblur=20.0 / qblur=0.5 / vbv_maxrate=62500 / vbv_bufsize=78125 / nal_hrd=none / ip_ratio=1.40 / aq=1:1.00
Язык : English
Default : Нет
Forced : Нет

Аудио #1
Идентификатор : 2
Формат : AC-3
Формат/Информация : Audio Coding 3
Расширение режима : CM (complete main)
Параметр Endianness формата : Big
Идентификатор кодека : A_AC3
Продолжительность : 1 ч. 36 м.
Вид битрейта : Постоянный
Битрейт : 448 Кбит/сек
Каналы : 6 каналов
Расположение каналов : Front: L C R, Side: L R, LFE
Частота : 48,0 КГц
Битовая глубина : 16 бит
Метод сжатия : С потерями
Размер потока : 310 Мбайт (8%)
Язык : Russian
Default : Да
Forced : Да

Аудио #2
Идентификатор : 3
Формат : DTS
Формат/Информация : Digital Theater Systems
Режим : 16
Параметр Endianness формата : Big
Идентификатор кодека : A_DTS
Продолжительность : 1 ч. 36 м.
Вид битрейта : Постоянный
Битрейт : 1509 Кбит/сек
Каналы : 6 каналов
Расположение каналов : Front: L C R, Side: L R, LFE
Частота : 48,0 КГц
Битовая глубина : 24 бит
Метод сжатия : С потерями
Задержка видео : 11 мс.
Размер потока : 1,02 Гбайт (28%)
Язык : English
Default : Нет
Forced : Нет

Меню
00:00:00.000 : en:00:00:00.000
00:09:05.920 : en:00:09:05.920
00:17:17.995 : en:00:17:17.995
00:25:12.511 : en:00:25:12.511
00:35:46.436 : en:00:35:46.436
00:44:29.834 : en:00:44:29.834
00:53:33.293 : en:00:53:33.293
01:01:08.665 : en:01:01:08.665
01:11:34.123 : en:01:11:34.123
01:20:02.715 : en:01:20:02.715
01:26:35.690 : en:01:26:35.690
01:31:21.309 : en:01:31:21.309
Скриншоты:


Братва из джунглей / Delhi Safari (2012) на NNM-CLUB


Время раздачи: 24/7
[NNM-Club.ru]_Bratva.iz.dzhunglej.2012.D.BDRip.720p.torrent
 Торрент: Платиновая раздача  Зарегистрирован
 
Скачать


Примагнититься
 Зарегистрирован:   26 Май 2013 18:32:14
 Размер:   3.58 GB  (
 Рейтинг:   4.9 (Голосов: 30)
 Поблагодарили:   179
 Проверка:   Оформление проверено модератором 26 Май 2013 19:39:57
Как cкачать  ·  Как раздать  ·  Правильно оформить  ·  Поднять ратио!  
delphiman
Стаж: 13 лет 1 мес.
Сообщений: 1152
Ratio: 3.138
Раздал: 5.816 TB
100%
Откуда: ОБНИНСК
russia.gif
Форумчане - а к ней где найти " украинскую озвучку" ? Она вообще есть?

Подскажите !

_________________
Время - самый лучший в мире доктор, но плохой косметолог
Показать сообщения:   
Начать новую тему   Ответить на тему    Торрент-трекер NNM-Club -> Мультфильмы -> Зарубежные Мультфильмы 21-го века (HD, FHD, UHD) Часовой пояс: GMT + 3
Страница 1 из 1