Классический форум-трекер
canvas not supported
Нас вместе: 4 232 315

Великий мастер / Yi dai zong shi / The Grandmaster (2013) HDRip


Страницы:  1, 2  След. 
 
RSS
Начать новую тему   Ответить на тему    Торрент-трекер NNM-Club -> Архив торрентов -> Архив Видео. Кино, Театра
Автор Сообщение
eXPpectant ®
Стаж: 14 лет 5 мес.
Сообщений: 2457
Ratio: 1628.264
Раздал: 18.08 TB
Поблагодарили: 308034
100%
Откуда: Нижний Тагил + Дмитров
russia.gif
Великий мастер / Yi dai zong shi / The Grandmaster (2013) HDRip
Русское название: Великий мастер
Оригинальное название: Yi dai zong shi / The Grandmaster
Год выпуска: 2013
Производство: Гонконг, Китай, Франция / Annapurna Pictures, Annapurna Pictures, Block 2 Pictures
Жанр: Боевик, Драма
Описание фильма:
Основатель старейшей Школы боевых искусств намерен уйти на покой и передать дела достойному преемнику. Но самый лучший его ученик вынашивает куда более амбициозные планы — он намерен объединить все разрозненные школы в одну. С этой целью он вызывает на поединок лидера каждой школы и, одерживая победу раз за разом, объединяет все школы. Последней остается школа его умершего учителя, отстоять память которого на поединок выходит его дочь, тайно влюбленная в своего соперника
Режиссер: Вонг Кар-Вай
Актеры: Чжан Цзыи, Тони Люн Чу Вай, Кунг Ле, Сон Хё-гю, Чжан Чжэнь, Юэнь Ву-Пин, Сю-Люн Люн, Чеунг-Ян Юэнь, Элвис Цуй, Менг Ло
Продолжительность: 02:10:06
Перевод: Одноголосый закадровый, любительский (zamez)

Дата мировой премьеры: 8 января 2013
Дата российской премьеры: 30 мая 2013, «Каравелла DDC»
Видеокодек: Xvid
Битрейт видео: ~1725 kb/s
Размер кадра: 720x304
Качество видео: HDRip
Аудио#1: Русский - AC3 5.1, 448 kb/s
Аудио#2: Китайский - AC3 5.1, 384 kb/s
Общее
Полное имя : D:\Торрент раздача\The.Grandmaster.2013.L1.HDRip.avi
Формат : AVI
Формат/Информация : Audio Video Interleave
Профиль формата : OpenDML
Настройки формата : rec
Размер файла : 2,06 Гбайт
Продолжительность : 2 ч. 10 м.
Общий поток : 2262 Кбит/сек
Программа кодирования : AVI-Mux GUI 1.17.8.3, Feb 16 201019:42:50

Видео
Идентификатор : 0
Формат : MPEG-4 Visual
Профиль формата : Advanced Simple@L5
Параметр BVOP формата : 2
Параметр QPel формата : Нет
Параметр GMC формата : Без точки перехода
Параметр матрицы формата : Default (H.263)
Идентификатор кодека : XVID
Идентификатор кодека/Подсказка : XviD
Продолжительность : 2 ч. 10 м.
Битрейт : 1725 Кбит/сек
Ширина : 720 пикселей
Высота : 304 пикселя
Соотношение сторон : 2,35:1
Частота кадров : 24,000 кадра/сек
Цветовое пространство : YUV
Субдискретизация насыщенности : 4:2:0
Битовая глубина : 8 бит
Тип развёртки : Прогрессивная
Метод сжатия : С потерями
Бит/(Пиксели*Кадры) : 0.328
Размер потока : 1,57 Гбайт (76%)
Библиотека кодирования : XviD 1.2.1 (UTC 2008-12-04)

Аудио #1
Идентификатор : 1
Формат : AC-3
Формат/Информация : Audio Coding 3
Идентификатор кодека : 2000
Продолжительность : 2 ч. 10 м.
Вид битрейта : Постоянный
Битрейт : 448 Кбит/сек
Каналы : 6 каналов
Частота : 48,0 КГц
Метод сжатия : С потерями
Размер потока : 417 Мбайт (20%)
Выравнивание : Соединение по промежуткам
Заголовок : The.Grandmaster.2013.BluRay.720p - [0] Russian

Аудио #2
Идентификатор : 2
Формат : AC-3
Формат/Информация : Audio Coding 3
Расширение режима : CM (complete main)
Параметр Endianness формата : Big
Идентификатор кодека : 2000
Продолжительность : 28 м.
Вид битрейта : Постоянный
Битрейт : 384 Кбит/сек
Каналы : 6 каналов
Расположение каналов : Front: L C R, Side: L R, LFE
Частота : 48,0 КГц
Битовая глубина : 16 бит
Метод сжатия : С потерями
Размер потока : 77,8 Мбайт (4%)
Выравнивание : Соединение по промежуткам
Продолжительность промежутка : 294 мс. (7,05 видеокадров)
Время предзагрузки промежутка : 192 мс.
Скриншоты:

Время раздачи: 24/7
[NNM-Club.ru]_The.Grandmaster.2013.L1.HDRip.torrent
 Торрент: Платиновая раздача  Зарегистрирован
 
Скачать


Примагнититься
 Зарегистрирован:   27 Май 2013 19:55:49
 Размер:   2.06 GB  (
 Рейтинг:   4.7 (Голосов: 99)
 Поблагодарили:   443
 Проверка:   Оформление проверено модератором 28 Май 2013 10:44:14
Как cкачать  ·  Как раздать  ·  Правильно оформить  ·  Поднять ратио!  
ravengad
Стаж: 11 лет 2 мес.
Сообщений: 3
Ratio: 1.351
50%
Спасибо, сейчас посмотрим
Dexter79
Стаж: 12 лет 4 мес.
Сообщений: 280
Ratio: 5.758
15.33%
russia.gif
Как фильм? :-)
ravengad
Стаж: 11 лет 2 мес.
Сообщений: 3
Ratio: 1.351
50%
Dexter79 писал(а): Перейти к сообщению
Как фильм? :-)
только скачал ) , сейчас начну смотреть и отпишусь . Ещё раз спасибо за оперативность.
Lamppost
Стаж: 12 лет 6 мес.
Сообщений: 2
Ratio: 18.355
0%
Субтитров нет на него?
S.Pchelintcev
Стаж: 14 лет
Сообщений: 13
Ratio: 0.982
6.67%
Откуда: Санкт-Петербург
russia.gif
ravengad писал(а): Перейти к сообщению
Dexter79 писал(а): Перейти к сообщению
Как фильм? :-)
только скачал ) , сейчас начну смотреть и отпишусь . Ещё раз спасибо за оперативность.

что не отписался?
toha174
Стаж: 14 лет 7 мес.
Сообщений: 10
Ratio: 12.756
0.96%
russia.gif
Цитата:
Как фильм?

бред сумасшедшего, даже не знаю как это кино целиком осилить
набор картинок которые соединили, а сюжет придумать забыли О нет
JonD
Стаж: 11 лет 3 мес.
Сообщений: 3
Ratio: 2.439
33.33%
Этот фильм сплошное разочарование....Единственный + ,есть парочка красивых боев. История просто нереально скучная, до Ип Мена этому фильму "как до Пекина раком" .....
segwese
Стаж: 11 лет 8 мес.
Сообщений: 54
Ratio: 50.743
100%
вначале фильма на боевой сцене виснет по пол секунды , такой рип иль кодэки несправляютсь ? как у всех то ?
SVtochka
Стаж: 12 лет 9 мес.
Сообщений: 59
Ratio: 0.342
100%
russia.gif
спасибо , буду качать
lordkunsaid
 
Стаж: 12 лет 8 мес.
Сообщений: 765
Ratio: 8.744
Поблагодарили: 3478
100%
Откуда: русь
russia.gif
segwese писал(а): Перейти к сообщению
вначале фильма на боевой сцене виснет по пол секунды , такой рип иль кодэки несправляютсь ? как у всех то ?

У меня на Splash PRO EX ничего не подвисало.
Фильм понравился, хоть и нудноватый местами.

_________________
QuadCore Intel Core i5-750 2.67GHz, Asus P7P55 LX, PLEXTOR PX-128M6S, GIGABYTE GTX 1660 Super 6 Gb, 460.79, 12 Gb RAM, Windows 10 2004
moroz_83
Стаж: 11 лет 9 мес.
Сообщений: 59
Ratio: 3.727
100%
S.Pchelintcev писал(а): Перейти к сообщению
ravengad писал(а): Перейти к сообщению
Dexter79 писал(а): Перейти к сообщению
Как фильм? :-)
только скачал ) , сейчас начну смотреть и отпишусь . Ещё раз спасибо за оперативность.

что не отписался?
смотрит еще походу =)
uaxli
Стаж: 14 лет 1 мес.
Сообщений: 26
Ratio: 5.787
100%
russia.gif
Какой же тягучий, унылый фильм....да, очень красиво, но черт возьми как лениво-нединамично, одна зевота!
Osensey
Стаж: 11 лет 2 мес.
Сообщений: 2
Ratio: 2.131
0%
Прикольно, что хоть фильм и посвящён мастеру юнчунь, но дерутся в основном с помощью синъицюань и багуачжан
Старыймичман
 
Стаж: 12 лет 9 мес.
Сообщений: 117
Ratio: 0.405
80.16%
Откуда: Мурманск
russia.gif
скучно и уныло .Понравится китайцам и мастерам кугфу
Показать сообщения:   
Начать новую тему   Ответить на тему    Торрент-трекер NNM-Club -> Архив торрентов -> Архив Видео. Кино, Театра Часовой пояс: GMT + 3
Страницы:  1, 2  След.
Страница 1 из 2