Классический форум-трекер
canvas not supported
Нас вместе: 4 232 307

Слепой / A l'aveugle (2012) HDRip


 
 
RSS
Начать новую тему   Ответить на тему    Торрент-трекер NNM-Club -> Зарубежное кино -> Зарубежные Фильмы (SD)
Автор Сообщение
eXPpectant ®
Стаж: 14 лет 5 мес.
Сообщений: 2457
Ratio: 1628.264
Раздал: 18.08 TB
Поблагодарили: 308063
100%
Откуда: Нижний Тагил + Дмитров
russia.gif
Слепой / A l'aveugle (2012) HDRip
Русское название: Слепой
Оригинальное название: A l'aveugle
Год выпуска: 2012
Производство: Франция, EuropaCorp, France 2 Cinéma, Orange Cinéma Séries
Жанр: Боевик, Триллер
Перевод: Многоголосый закадровый, профессиональный (лицензия)
Субтитры: Отсутствуют
Дата мировой премьеры: 7 марта 2012
Дата выхода DVD релиза: 23 мая 2013, «Вольга»
Режиссер: Ксавьер Палю
Продюсер: Люк Бессон
Актеры: Жак Гамблен, Ламбер Вильсон, Рафаэль Ароре, Арно Коссон, Антуан Леваннье, Фридерик Контожом, Давид Капелле, Натали Винье, Паскаль Демолон, Николя Пиньон, Дэниэл Лобе, Миглен Миртчев, Артур Монкла
Описание фильма:
Изувеченный труп молодой девушки найден у нее дома. Ни взлома, ни свидетелей, все выглядит идеальным преступлением. Расследование поручается капитану Лассаллю, опытному одинокому полицейскому, разбитому недавней смертью жены. Схожие по характеру жестокие убийства продолжают происходить, и в связи с ними Лассалля интригует личность слепого Нарвика. Но у него есть алиби, а его немощь, казалось бы, ограждает от подозрений. Странная дуэль наподобие игры в шахматы начинается между двумя людьми.

Продолжительность: 01:33:26
Качество видео: HDRip
Видеокодек: Xvid
Битрейт видео: ~978 Кбит/с
Размер кадра: 720x304
Аудиокодек: MP3 (2 ch)
Битрейт аудио: 128 Кбит/с
Общее
Полное имя : D:\Торрент раздача\Slepoy.2012.P.HDRip.745MB.avi
Формат : AVI
Формат/Информация : Audio Video Interleave
Размер файла : 745 Мбайт
Продолжительность : 1 ч. 33 м.
Общий поток : 1115 Кбит/сек
Программа кодирования : VirtualDubModRus 1.5.10.2 (build 2542/release)
Библиотека кодирования : VirtualDubMod build 2542/release

Видео
Идентификатор : 0
Формат : MPEG-4 Visual
Профиль формата : Advanced Simple@L5
Параметр BVOP формата : 1
Параметр QPel формата : Нет
Параметр GMC формата : Без точки перехода
Параметр матрицы формата : Выборочная
Идентификатор кодека : XVID
Идентификатор кодека/Подсказка : XviD
Продолжительность : 1 ч. 33 м.
Битрейт : 978 Кбит/сек
Ширина : 720 пикселей
Высота : 304 пикселя
Соотношение сторон : 2,35:1
Частота кадров : 24,000 кадра/сек
Цветовое пространство : YUV
Субдискретизация насыщенности : 4:2:0
Битовая глубина : 8 бит
Тип развёртки : Прогрессивная
Метод сжатия : С потерями
Бит/(Пиксели*Кадры) : 0.186
Размер потока : 653 Мбайт (88%)
Библиотека кодирования : XviD 65

Аудио
Идентификатор : 1
Формат : MPEG Audio
Версия формата : Version 1
Профиль формата : Layer 3
Режим : Joint stereo
Расширение режима : MS Stereo
Идентификатор кодека : 55
Идентификатор кодека/Подсказка : MP3
Продолжительность : 1 ч. 33 м.
Вид битрейта : Постоянный
Битрейт : 128 Кбит/сек
Каналы : 2 канала
Частота : 48,0 КГц
Метод сжатия : С потерями
Размер потока : 85,5 Мбайт (11%)
Выравнивание : Соединение по промежуткам
Продолжительность промежутка : 42 мс. (1,00 видеокадр)
Время предзагрузки промежутка : 504 мс.
Библиотека кодирования : LAME
Скриншоты:


Время раздачи: 24/7
[NNM-Club.ru]_Slepoy.2012.P.HDRip.745MB.torrent
 Торрент: Платиновая раздача  Зарегистрирован
 
Скачать


Примагнититься
 Зарегистрирован:   28 Май 2013 07:23:35
 Размер:   745 MB  (
 Рейтинг:   4.5 (Голосов: 53)
 Поблагодарили:   245
 Проверка:   Оформление проверено модератором 29 Май 2013 15:10:50
Как cкачать  ·  Как раздать  ·  Правильно оформить  ·  Поднять ратио!  
tigr007
Стаж: 12 лет
Сообщений: 235
Ratio: 5.594
Поблагодарили: 194
100%
pirates.png
Ожидал нечто большее,так как режиссер Бессон,но и что важно не совсем скатился в плохое кино 2 эшелона.
можно смотреть.
Masterus
Стаж: 16 лет 8 мес.
Сообщений: 18
Ratio: 9.95
37.41%
Откуда: Донецк
tigr007 писал(а): Перейти к сообщению
Ожидал нечто большее,так как режиссер Бессон,но и что важно не совсем скатился в плохое кино 2 эшелона.
можно смотреть.


>>>Продюсер<<<: Люк Бессон
spartak78
Стаж: 15 лет
Сообщений: 103
Ratio: 5.197
100%
russia.gif
У французов так!Чем горбаче нос-тем круче персонаж!))
Показать сообщения:   
Начать новую тему   Ответить на тему    Торрент-трекер NNM-Club -> Зарубежное кино -> Зарубежные Фильмы (SD) Часовой пояс: GMT + 3
Страница 1 из 1